<?xml version="1.0" standalone="no"?>
<!DOCTYPE svg PUBLIC "-//W3C//DTD SVG 1.1//EN" "http://www.w3.org/Graphics/SVG/1.1/DTD/svg11.dtd" >
<svg>
<metadata>
Created by FontForge 20120731 at Sat Aug 24 17:01:56 2019
 By www
Copyright 2015 Samsung Electronics Co., Ltd. All Rights Reserved.
</metadata>
<defs>
<font id="SamsungOne-600" horiz-adv-x="0" >
  <font-face 
    font-family="SamsungOne"
    font-weight="600"
    font-stretch="normal"
    units-per-em="1024"
    panose-1="2 11 7 3 3 3 3 2 2 4"
    ascent="794"
    descent="-230"
    x-height="539"
    cap-height="724"
    bbox="-686 -304 2462 1047"
    underline-thickness="35"
    underline-position="-103"
    unicode-range="U+0002-1F16B"
  />
<missing-glyph horiz-adv-x="692" 
d="M601 0h-86h-376h-49v724h86h425v-724zM515 644h-300l300 -495v495zM176 80h300l-300 495v-495z" />
    <glyph glyph-name="fi" unicode="fi" horiz-adv-x="637" 
d="M104 456h-89v83h89v57q0 87 51.5 135.5t144.5 48.5q33 0 55 -5v-85q-36 4 -55 4q-49 0 -74 -25t-25 -73v-57h135v-83h-135v-456h-97v456zM452 539h97v-539h-97v539zM454.5 641.5q-16.5 16.5 -16.5 45.5q0 30 16.5 46.5t46.5 16.5t46.5 -16.5t16.5 -45.5
q0 -30 -16.5 -46.5t-46.5 -16.5t-46.5 16.5z" />
    <glyph glyph-name="fl" unicode="fl" horiz-adv-x="678" 
d="M104 456h-89v83h89v57q0 87 51.5 135.5t144.5 48.5q33 0 55 -5v-85q-36 4 -55 4q-49 0 -74 -25t-25 -73v-57h135v-83h-135v-456h-97v456zM448 121v649h97v-636q0 -28 12.5 -41t40.5 -13q17 0 38 4l8 -82q-35 -8 -70 -8q-126 0 -126 127z" />
    <glyph glyph-name=".notdef" horiz-adv-x="692" 
d="M601 0h-86h-376h-49v724h86h425v-724zM515 644h-300l300 -495v495zM176 80h300l-300 495v-495z" />
    <glyph glyph-name="uni0000" 
 />
    <glyph glyph-name="nonmarkingreturn" unicode="&#xd;" 
 />
    <glyph glyph-name="uni0002" 
 />
    <glyph glyph-name="uni0008" horiz-adv-x="260" 
 />
    <glyph glyph-name="uni0009" unicode="&#x9;" horiz-adv-x="512" 
 />
    <glyph glyph-name="uni001D" horiz-adv-x="220" 
 />
    <glyph glyph-name="space" unicode=" " horiz-adv-x="220" 
 />
    <glyph glyph-name="exclam" unicode="!" horiz-adv-x="353" 
d="M120 724h111l-16 -520h-78zM127.5 4.5q-17.5 17.5 -17.5 47.5q0 32 17.5 49t49.5 17q31 0 48.5 -17.5t17.5 -47.5q0 -31 -17.5 -48.5t-48.5 -17.5q-32 0 -49.5 17.5z" />
    <glyph glyph-name="quotedbl" unicode="&#x22;" horiz-adv-x="381" 
d="M219 724h98l-18 -247h-61zM63 724h98l-18 -247h-61z" />
    <glyph glyph-name="numbersign" unicode="#" horiz-adv-x="672" 
d="M499 455l-30 -186h126v-71h-138l-32 -198h-80l32 198h-133l-32 -198h-80l31 198h-130v71h142l30 186h-130v71h141l32 198h81l-32 -198h133l32 198h80l-32 -198h129v-71h-140zM419 455h-134l-30 -186h133z" />
    <glyph glyph-name="dollar" unicode="$" horiz-adv-x="549" 
d="M447.5 73q-48.5 -53 -137.5 -64v-94h-73v92q-52 3 -102.5 17.5t-90.5 38.5l32 77q82 -45 162 -49v234l-19 6q-86 23 -126.5 68.5t-40.5 119.5q0 85 48.5 136.5t136.5 60.5v93h73v-92q84 -8 167 -41l-31 -78q-78 28 -137 34v-226l21 -5q86 -24 126 -69.5t40 -119.5
q0 -86 -48.5 -139zM167.5 466q21.5 -25 70.5 -40v206q-47 -6 -69.5 -30t-22.5 -68q0 -43 21.5 -68zM379.5 126.5q22.5 25.5 22.5 71.5q0 43 -21.5 68t-71.5 40v-213q48 8 70.5 33.5z" />
    <glyph glyph-name="percent" unicode="%" horiz-adv-x="933" 
d="M95 350.5q-39 55.5 -39 165.5t39 165.5t116 55.5t116 -56t39 -165t-39 -165t-116 -56t-116 55.5zM607 724h87l-367 -724h-88zM263 402q17 36 17 114t-17 114t-52 36q-36 0 -53 -36t-17 -114t17 -114t53 -36q35 0 52 36zM607 42.5q-39 55.5 -39 165.5t39 165.5t116 55.5
t116 -56t39 -165t-39 -165t-116 -56t-116 55.5zM776 94q17 36 17 114t-17 114t-53 36t-53 -36t-17 -114t17 -114t53 -36t53 36z" />
    <glyph glyph-name="ampersand" unicode="&#x26;" horiz-adv-x="652" 
d="M553 -14l-85 97q-40 -49 -91.5 -72.5t-116.5 -23.5q-96 0 -149 46.5t-53 131.5q0 51 21 90t69 76l62 48l-30 35q-40 46 -56 81.5t-16 76.5q0 79 50 122t142 43q90 0 140 -41.5t50 -115.5q0 -49 -26.5 -89.5t-92.5 -93.5l-32 -25l120 -138l63 137h96l-85 -183l-13 -25
l102 -117zM284 436l37 29q44 35 59.5 56.5t15.5 49.5q0 81 -96 81q-95 0 -95 -79q0 -27 13 -51t49 -66zM411 149l-145 166l-43 -34q-35 -28 -49 -52t-14 -56q0 -98 108 -98q87 0 143 74z" />
    <glyph glyph-name="quotesingle" unicode="'" horiz-adv-x="224" 
d="M63 724h98l-18 -247h-61z" />
    <glyph glyph-name="parenleft" unicode="(" horiz-adv-x="331" 
d="M96 101.5q-40 117.5 -40 239.5q0 123 40 241t116 216l70 -52q-129 -173 -129 -404t129 -404l-70 -52q-76 98 -116 215.5z" />
    <glyph glyph-name="parenright" unicode=")" horiz-adv-x="331" 
d="M50 -62q128 174 128 404t-128 404l70 52q75 -98 115 -216t40 -241q0 -122 -40 -239.5t-115 -215.5z" />
    <glyph glyph-name="asterisk" unicode="*" horiz-adv-x="538" 
d="M322 496l101 -126l-66 -53l-88 136l-88 -136l-67 53l101 126l-155 42l28 82l148 -58l-10 162h85l-9 -162l148 58l27 -82z" />
    <glyph glyph-name="plus" unicode="+" horiz-adv-x="574" 
d="M523 324h-190v-208h-92v208h-190v89h190v208h92v-208h190v-89z" />
    <glyph glyph-name="comma" unicode="," horiz-adv-x="240" 
d="M7 -135q39 42 55.5 82.5t16.5 93.5q0 34 -5 67h100q5 -33 5 -65q0 -67 -31 -121t-98 -104z" />
    <glyph glyph-name="hyphen" unicode="-" horiz-adv-x="408" 
d="M50 338h308v-80h-308v80z" />
    <glyph glyph-name="period" unicode="." horiz-adv-x="254" 
d="M78.5 4.5q-17.5 17.5 -17.5 47.5q0 32 17.5 49t48.5 17t48.5 -17.5t17.5 -47.5q0 -31 -17.5 -48.5t-48.5 -17.5t-48.5 17.5z" />
    <glyph glyph-name="slash" unicode="/" horiz-adv-x="445" 
d="M343 742h83l-322 -828h-82z" />
    <glyph glyph-name="zero" unicode="0" horiz-adv-x="623" 
d="M127 78q-61 91 -61 284t60.5 284t184.5 91t185.5 -91.5t61.5 -283.5t-61 -283.5t-185 -91.5t-185 91zM422 144.5q35 69.5 35 217.5q0 149 -35 218t-111 69q-75 0 -109.5 -69t-34.5 -218t34.5 -218t110.5 -69q75 0 110 69.5z" />
    <glyph glyph-name="one" unicode="1" horiz-adv-x="449" 
d="M322 724v-724h-98v620l-164 -57l-28 82l206 79h84z" />
    <glyph glyph-name="two" unicode="2" horiz-adv-x="532" 
d="M474 85v-85h-436v86l248 296q46 55 64.5 90t18.5 68q0 50 -32.5 78t-90.5 28q-42 0 -85.5 -14.5t-80.5 -40.5l-46 76q40 32 101 51t119 19q97 0 155.5 -52t58.5 -137q0 -50 -24.5 -100.5t-83.5 -119.5l-207 -243h321z" />
    <glyph glyph-name="three" unicode="3" horiz-adv-x="562" 
d="M439 376q54 -59 54 -153q0 -70 -30.5 -123.5t-86.5 -83t-129 -29.5q-56 0 -114 16.5t-99 43.5l38 83q43 -25 88.5 -38.5t86.5 -13.5q68 0 106.5 38.5t38.5 106.5q0 65 -37 101.5t-102 36.5q-36 0 -66 -9l-38 48l214 239h-315v85h423v-85l-178 -197q92 -7 146 -66z" />
    <glyph glyph-name="four" unicode="4" horiz-adv-x="580" 
d="M532 237v-86h-91v-151h-95v151h-318v86l275 487h138v-487h91zM346 237v398l-215 -398h215z" />
    <glyph glyph-name="five" unicode="5" horiz-adv-x="553" 
d="M385 431.5q50 -28.5 77.5 -80.5t27.5 -121q0 -72 -31 -127t-87.5 -85.5t-130.5 -30.5q-53 0 -107.5 15.5t-91.5 40.5l38 82q39 -22 81 -34.5t80 -12.5q70 0 109 40t39 111q0 67 -36.5 105t-101.5 38q-32 0 -63 -9t-56 -25l-59 33l20 353h365v-85h-279l-15 -198
q49 19 105 19q66 0 116 -28.5z" />
    <glyph glyph-name="six" unicode="6" horiz-adv-x="566" 
d="M422 426.5q49 -28.5 76 -80t27 -120.5q0 -71 -29.5 -125t-83 -84t-123.5 -30q-72 0 -126 31t-83.5 87t-29.5 129q0 77 30 148.5t103 162.5l152 192l78 -59l-154 -185l-42 -54q42 16 92 16q64 0 113 -28.5zM388.5 113q35.5 40 35.5 110q0 72 -37.5 113t-104.5 41
q-57 0 -108 -28q-25 -47 -25 -113q0 -76 37.5 -119.5t103.5 -43.5q63 0 98.5 40z" />
    <glyph glyph-name="seven" unicode="7" horiz-adv-x="494" 
d="M461 724v-85l-284 -649l-91 38l274 611h-343v85h444z" />
    <glyph glyph-name="eight" unicode="8" horiz-adv-x="586" 
d="M165 11.5q-55 24.5 -85 69t-30 103.5q0 62 41.5 114.5t109.5 78.5q-55 20 -88.5 68.5t-33.5 107.5q0 55 26.5 96.5t75 64.5t112.5 23t112.5 -23t75 -64.5t26.5 -96.5q0 -59 -34 -106.5t-89 -66.5q69 -20 111 -72.5t42 -118.5q0 -60 -30.5 -106t-85.5 -71t-128 -25
t-128 24.5zM379.5 466.5q29.5 34.5 29.5 77.5q0 51 -31 80t-85 29t-85 -29t-31 -79q0 -43 32.5 -78t88.5 -53q52 18 81.5 52.5zM398.5 104q38.5 32 38.5 88q0 46 -39.5 86t-108.5 65q-66 -22 -103 -62t-37 -88q0 -57 38 -89t106 -32q67 0 105.5 32z" />
    <glyph glyph-name="nine" unicode="9" horiz-adv-x="566" 
d="M403 706q54 -31 84 -87t30 -129q0 -76 -30.5 -148t-103.5 -163l-152 -192l-78 59l154 185l43 55q-42 -17 -93 -17q-64 0 -113 28t-75.5 80t-26.5 121q0 71 29 125t82.5 84t123.5 30q72 0 126 -31zM179.5 388q37.5 -41 104.5 -41q54 0 108 27q25 48 25 114
q0 76 -37.5 119.5t-102.5 43.5q-64 0 -99.5 -40t-35.5 -110q0 -72 37.5 -113z" />
    <glyph glyph-name="colon" unicode=":" horiz-adv-x="294" 
d="M98.5 345.5q-17.5 17.5 -17.5 47.5q0 32 17.5 49t48.5 17t48.5 -17.5t17.5 -47.5q0 -31 -17.5 -48.5t-48.5 -17.5t-48.5 17.5zM98.5 4.5q-17.5 17.5 -17.5 47.5q0 32 17.5 49t48.5 17t48.5 -17.5t17.5 -47.5q0 -31 -17.5 -48.5t-48.5 -17.5t-48.5 17.5z" />
    <glyph glyph-name="semicolon" unicode=";" horiz-adv-x="294" 
d="M98.5 345.5q-17.5 17.5 -17.5 47.5q0 32 17.5 49t48.5 17t48.5 -17.5t17.5 -47.5q0 -31 -17.5 -48.5t-48.5 -17.5t-48.5 17.5zM32 -135q39 42 55.5 82.5t16.5 93.5q0 34 -5 67h100q5 -33 5 -65q0 -67 -31 -121t-98 -104z" />
    <glyph glyph-name="less" unicode="&#x3c;" horiz-adv-x="430" 
d="M47 365l266 299l71 -66l-212 -233l212 -233l-71 -66z" />
    <glyph glyph-name="equal" unicode="=" horiz-adv-x="574" 
d="M74 526h426v-90h-426v90zM74 294h426v-90h-426v90z" />
    <glyph glyph-name="greater" unicode="&#x3e;" horiz-adv-x="430" 
d="M47 132l211 233l-211 233l71 66l266 -299l-266 -299z" />
    <glyph glyph-name="question" unicode="?" horiz-adv-x="517" 
d="M180 261q0 57 22.5 95.5t83.5 87.5q41 32 55 53.5t14 52.5q0 94 -107 94q-77 0 -159 -51l-40 82q44 30 96 46t108 16q97 0 151 -48t54 -134q0 -50 -22 -86.5t-80 -80.5q-50 -38 -67 -64.5t-17 -65.5q0 -19 3 -54h-92q-3 38 -3 57zM181 4.5q-18 17.5 -18 47.5
q0 31 17.5 48.5t49.5 17.5q31 0 48.5 -17.5t17.5 -47.5q0 -31 -17.5 -48.5t-48.5 -17.5t-49 17.5z" />
    <glyph glyph-name="at" unicode="@" horiz-adv-x="808" 
d="M537 511v-205q0 -60 49 -60q41 0 63 39t22 110q0 128 -69 200t-193 72t-193 -80.5t-69 -224.5q0 -145 72 -226t201 -81q85 0 151 37l29 -64q-34 -21 -81.5 -33t-98.5 -12q-106 0 -186 47t-123 133t-43 199t42.5 199t120 133t178.5 47q100 0 176 -43t118 -121.5t42 -181.5
q0 -96 -41.5 -154.5t-110.5 -58.5q-28 0 -50 10.5t-34 29.5q-34 -44 -100 -44q-70 0 -109.5 48.5t-39.5 135.5q0 88 43 136t120 48q65 0 114 -35zM466 472q-24 9 -46 9q-86 0 -86 -119t85 -119q25 0 47 13v216z" />
    <glyph glyph-name="A" unicode="A" horiz-adv-x="668" 
d="M477 182h-288l-59 -182h-105l254 724h110l253 -724h-106zM448 269l-116 355l-115 -355h231z" />
    <glyph glyph-name="B" unicode="B" horiz-adv-x="646" 
d="M598 209q0 -99 -59.5 -154t-166.5 -55h-229h-53v724h99h148q104 0 162 -53t58 -148q0 -109 -94 -141q135 -36 135 -173zM189 636v-222h148q58 0 88 27.5t30 80.5q0 56 -31 85t-92 29h-143zM465 118.5q30 30.5 30 89.5q0 120 -123 120h-183v-240h188q58 0 88 30.5z" />
    <glyph glyph-name="C" unicode="C" horiz-adv-x="601" 
d="M133.5 83q-85.5 95 -85.5 265q0 117 39.5 205t111.5 136t169 48q51 0 101 -13.5t90 -37.5l-36 -78q-80 39 -157 39q-102 0 -158.5 -76.5t-56.5 -214.5q0 -136 57.5 -206t170.5 -70q91 0 150 35l36 -77q-32 -24 -83 -37t-109 -13q-154 0 -239.5 95z" />
    <glyph glyph-name="D" unicode="D" horiz-adv-x="691" 
d="M548 632.5q85 -91.5 85 -270.5t-86 -270.5t-248 -91.5h-209v724h212q161 0 246 -91.5zM472 158q58 69 58 204q0 136 -58.5 204.5t-173.5 68.5h-109v-546h111q114 0 172 69z" />
    <glyph glyph-name="E" unicode="E" horiz-adv-x="576" 
d="M536 89v-89h-446v724h433v-89h-334v-220h249v-90h-249v-236h347z" />
    <glyph glyph-name="F" unicode="F" horiz-adv-x="538" 
d="M189 635v-235h267v-90h-267v-310h-99v724h426v-89h-327z" />
    <glyph glyph-name="G" unicode="G" horiz-adv-x="668" 
d="M598 392v-352q-39 -25 -94 -39t-116 -14q-157 0 -243.5 98.5t-86.5 276.5t86.5 276.5t243.5 98.5q56 0 108 -13.5t89 -36.5l-30 -81q-90 42 -169 42q-112 0 -168.5 -72t-56.5 -214t57 -214t170 -72q60 0 111 16v212h-128v88h227z" />
    <glyph glyph-name="H" unicode="H" horiz-adv-x="702" 
d="M611 724v-724h-99v323h-323v-323h-99v724h99v-312h323v312h99z" />
    <glyph glyph-name="I" unicode="I" horiz-adv-x="283" 
d="M92 724h99v-724h-99v724z" />
    <glyph glyph-name="J" unicode="J" horiz-adv-x="460" 
d="M78 0q-43 13 -72 36l37 78q61 -37 124 -37q109 0 109 110v537h99v-541q0 -93 -54 -144.5t-151 -51.5q-49 0 -92 13z" />
    <glyph glyph-name="K" unicode="K" horiz-adv-x="624" 
d="M278 322l-89 -107v-215h-99v724h99v-382l302 382h119l-268 -325l284 -399h-119z" />
    <glyph glyph-name="L" unicode="L" horiz-adv-x="529" 
d="M501 90v-90h-411v724h99v-634h312z" />
    <glyph glyph-name="M" unicode="M" horiz-adv-x="848" 
d="M758 724v-724h-97v568l-186 -421h-104l-186 421v-568h-95v724h119l216 -484l212 484h121z" />
    <glyph glyph-name="N" unicode="N" horiz-adv-x="724" 
d="M633 724v-724h-94l-352 556v-556h-97v724h94l352 -555v555h97z" />
    <glyph glyph-name="O" unicode="O" horiz-adv-x="714" 
d="M134.5 82q-76.5 95 -76.5 280t76.5 280t222.5 95q145 0 222 -95t77 -280t-77 -280t-222 -95q-146 0 -222.5 95zM503.5 148q49.5 72 49.5 214t-49.5 214t-146.5 72t-146.5 -72t-49.5 -214t49.5 -214t146.5 -72t146.5 72z" />
    <glyph glyph-name="P" unicode="P" horiz-adv-x="597" 
d="M516.5 661.5q60.5 -62.5 60.5 -174.5q0 -113 -62.5 -176t-173.5 -63h-152v-248h-99v724h99h157q110 0 170.5 -62.5zM441.5 375q32.5 38 32.5 111q0 74 -33.5 111.5t-99.5 37.5h-152v-298h157q63 0 95.5 38z" />
    <glyph glyph-name="Q" unicode="Q" horiz-adv-x="714" 
d="M601 -157l-137 160q-47 -16 -107 -16q-146 0 -222.5 95t-76.5 280t76.5 280t222.5 95q145 0 222 -95t77 -280q0 -225 -114 -317l125 -135zM210.5 148q49.5 -72 146.5 -72t146.5 72t49.5 214t-49.5 214t-146.5 72t-146.5 -72t-49.5 -214t49.5 -214z" />
    <glyph glyph-name="R" unicode="R" horiz-adv-x="633" 
d="M313 269h-124v-269h-99v724h99h148q108 0 168.5 -60t60.5 -167q0 -84 -38.5 -140.5t-110.5 -76.5l187 -280h-120zM189 356h148q126 0 126 140q0 69 -33 104.5t-97 35.5h-144v-280z" />
    <glyph glyph-name="S" unicode="S" horiz-adv-x="562" 
d="M145 4q-60 16 -106 45l34 81q96 -54 194 -54q72 0 110.5 29.5t38.5 82.5q0 45 -26.5 73.5t-82.5 43.5l-82 23q-93 25 -135.5 73t-42.5 127q0 97 62.5 152.5t170.5 55.5q53 0 109.5 -12t104.5 -34l-33 -82q-103 40 -183 40q-64 0 -98.5 -27.5t-34.5 -77.5q0 -45 26.5 -73
t82.5 -43l82 -23q92 -26 134.5 -74t42.5 -127q0 -100 -65.5 -157.5t-180.5 -57.5q-62 0 -122 16z" />
    <glyph glyph-name="T" unicode="T" horiz-adv-x="528" 
d="M502 634h-189v-634h-99v634h-188v90h287h189v-90z" />
    <glyph glyph-name="U" unicode="U" horiz-adv-x="686" 
d="M152.5 57q-67.5 70 -67.5 197v470h99v-466q0 -90 40 -136t118 -46q159 0 159 182v466h99v-470q0 -127 -68 -197t-190 -70t-189.5 70z" />
    <glyph glyph-name="V" unicode="V" horiz-adv-x="632" 
d="M602 724l-231 -724h-110l-232 724h106l182 -617l180 617h105z" />
    <glyph glyph-name="W" unicode="W" horiz-adv-x="896" 
d="M864 724l-180 -724h-110l-128 582l-125 -582h-110l-180 724h104l132 -608l127 607h108l129 -606l131 607h102z" />
    <glyph glyph-name="X" unicode="X" horiz-adv-x="608" 
d="M467 0l-165 286l-163 -286h-113l222 366l-214 358h114l158 -275l161 275h112l-219 -356l221 -368h-114z" />
    <glyph glyph-name="Y" unicode="Y" horiz-adv-x="588" 
d="M566 724l-224 -472v-252h-99v252l-222 472h108l166 -362l164 362h107z" />
    <glyph glyph-name="Z" unicode="Z" horiz-adv-x="553" 
d="M510 87v-87h-469v88l352 549h-339v87h451v-87l-352 -550h357z" />
    <glyph glyph-name="bracketleft" unicode="[" horiz-adv-x="353" 
d="M181 707v-730h145v-77h-236v884h236v-77h-145z" />
    <glyph glyph-name="backslash" unicode="\" horiz-adv-x="445" 
d="M341 -86l-322 828h82l322 -828h-82z" />
    <glyph glyph-name="bracketright" unicode="]" horiz-adv-x="353" 
d="M263 784v-884h-236v77h145v730h-145v77h236z" />
    <glyph glyph-name="asciicircum" unicode="^" horiz-adv-x="425" 
d="M165 724h94l148 -205h-102l-92 139l-93 -139h-103z" />
    <glyph glyph-name="underscore" unicode="_" horiz-adv-x="599" 
d="M90 -68h418v-86h-418v86z" />
    <glyph glyph-name="grave" unicode="`" horiz-adv-x="500" 
d="M115 774v10h107l91 -159v-10h-74z" />
    <glyph glyph-name="a" unicode="a" horiz-adv-x="531" 
d="M399.5 507.5q53.5 -44.5 53.5 -128.5v-379h-88v71q-52 -82 -161 -82q-79 0 -122.5 42t-43.5 119q0 96 77 141.5t242 46.5v31q0 46 -30 70t-88 24q-66 0 -126 -28l-25 78q79 39 166 39q92 0 145.5 -44.5zM357 134v133q-117 -2 -171 -28t-54 -82q0 -41 24 -62t71 -21
q75 0 130 60z" />
    <glyph glyph-name="b" unicode="b" horiz-adv-x="577" 
d="M474.5 477q52.5 -75 52.5 -210q0 -132 -54.5 -206t-152.5 -74q-45 0 -83 18.5t-63 52.5v-58h-89v63v438v269h97v-291q55 73 145 73q95 0 147.5 -75zM427 265q0 195 -128 195q-64 0 -117 -57v-273q23 -26 55 -40.5t67 -14.5q123 0 123 190z" />
    <glyph glyph-name="c" unicode="c" horiz-adv-x="481" 
d="M111 61.5q-65 73.5 -65 205.5q0 85 30 149.5t85 100t127 35.5q41 0 82.5 -12.5t74.5 -33.5l-36 -77q-67 34 -123 34q-66 0 -103 -50t-37 -139q0 -97 38.5 -146.5t114.5 -49.5q61 0 117 32l35 -76q-30 -22 -70.5 -34t-87.5 -12q-117 0 -182 73.5z" />
    <glyph glyph-name="d" unicode="d" horiz-adv-x="577" 
d="M491 770v-770h-89v38v34q-53 -85 -153 -85q-94 0 -146.5 75t-52.5 209q0 133 54.5 207t152.5 74q42 0 77.5 -16t59.5 -45v279h97zM339.5 92.5q28.5 13.5 54.5 43.5v272q-23 27 -55 41.5t-67 14.5q-61 0 -91.5 -48t-30.5 -143q0 -194 128 -194q33 0 61.5 13.5z" />
    <glyph glyph-name="e" unicode="e" horiz-adv-x="541" 
d="M493 241h-347q12 -164 156 -164q72 0 136 38l35 -75q-34 -25 -81 -38.5t-98 -13.5q-117 0 -181.5 74t-64.5 207q0 134 60 208.5t168 74.5q105 0 163 -68.5t58 -191.5q0 -31 -4 -51zM186 427.5q-32 -38.5 -39 -113.5h253q-1 72 -34 112t-92 40q-56 0 -88 -38.5z" />
    <glyph glyph-name="f" unicode="f" horiz-adv-x="365" 
d="M104 456h-89v83h89v57q0 87 51.5 135.5t144.5 48.5q33 0 55 -5v-85q-36 4 -55 4q-49 0 -74 -25t-25 -73v-57h135v-83h-135v-456h-97v456z" />
    <glyph glyph-name="g" unicode="g" horiz-adv-x="579" 
d="M494 539v-533q0 -107 -63 -166.5t-176 -59.5q-43 0 -85 9t-74 25l29 82q60 -29 124 -29q148 0 148 139v84q-53 -73 -146 -73q-95 0 -148 71t-53 198q0 126 55 196t154 70q46 0 83.5 -18.5t62.5 -53.5v59h89zM342.5 122.5q28.5 13.5 54.5 43.5v242q-24 27 -56 41.5
t-67 14.5q-124 0 -124 -176q0 -89 33 -134t97 -45q34 0 62.5 13.5z" />
    <glyph glyph-name="h" unicode="h" horiz-adv-x="585" 
d="M461.5 506.5q43.5 -45.5 43.5 -127.5v-379h-97v368q0 92 -101 92q-35 0 -65.5 -11.5t-59.5 -35.5v-413h-97v770h97v-284q66 66 157 66q79 0 122.5 -45.5z" />
    <glyph glyph-name="i" unicode="i" horiz-adv-x="272" 
d="M87 539h97v-539h-97v539zM89.5 641.5q-16.5 16.5 -16.5 45.5q0 30 16.5 46.5t46.5 16.5t46.5 -16.5t16.5 -45.5q0 -30 -16.5 -46.5t-46.5 -16.5t-46.5 16.5z" />
    <glyph glyph-name="j" unicode="j" horiz-adv-x="272" 
d="M-52 -141q56 20 85.5 41.5t41.5 53t12 83.5v502h97v-504q0 -74 -18 -120t-61.5 -77.5t-123.5 -58.5zM89.5 641.5q-16.5 16.5 -16.5 45.5q0 30 16.5 46.5t46.5 16.5t46.5 -16.5t16.5 -45.5q0 -30 -16.5 -46.5t-46.5 -16.5t-46.5 16.5z" />
    <glyph glyph-name="k" unicode="k" horiz-adv-x="547" 
d="M252 239l-70 -80v-159h-97v770h97v-490l218 259h115l-199 -227l211 -312h-114z" />
    <glyph glyph-name="l" unicode="l" horiz-adv-x="313" 
d="M83 121v649h97v-636q0 -28 12.5 -41t40.5 -13q17 0 38 4l8 -82q-35 -8 -70 -8q-126 0 -126 127z" />
    <glyph glyph-name="m" unicode="m" horiz-adv-x="885" 
d="M762.5 506.5q41.5 -45.5 41.5 -127.5v-379h-97v368q0 92 -94 92q-33 0 -62 -11.5t-59 -37.5q2 -10 2 -32v-379h-97v368q0 92 -95 92q-32 0 -61 -11.5t-59 -35.5v-413h-97v539h89v-62q66 75 161 75q51 0 87.5 -21.5t54.5 -62.5q72 84 169 84q75 0 116.5 -45.5z" />
    <glyph glyph-name="n" unicode="n" horiz-adv-x="583" 
d="M459.5 506.5q43.5 -45.5 43.5 -127.5v-379h-97v368q0 92 -100 92q-35 0 -64.5 -11.5t-59.5 -35.5v-413h-97v539h89v-62q66 75 164 75q78 0 121.5 -45.5z" />
    <glyph glyph-name="o" unicode="o" horiz-adv-x="558" 
d="M109 58.5q-59 71.5 -59 210.5t59.5 211t170.5 72q110 0 169 -72t59 -211q0 -138 -59.5 -210t-169.5 -72q-111 0 -170 71.5zM375.5 123q32.5 49 32.5 146t-32.5 146.5t-95.5 49.5q-64 0 -97 -49.5t-33 -146.5t32.5 -146t96.5 -49t96.5 49z" />
    <glyph glyph-name="p" unicode="p" horiz-adv-x="577" 
d="M474.5 477q52.5 -75 52.5 -210q0 -132 -54.5 -206t-152.5 -74q-42 0 -77.5 15.5t-60.5 44.5v-254h-97v270v438v38h89v-72q55 85 153 85q95 0 147.5 -75zM427 265q0 195 -128 195q-64 0 -117 -57v-273q23 -26 55 -40.5t67 -14.5q123 0 123 190z" />
    <glyph glyph-name="q" unicode="q" horiz-adv-x="577" 
d="M491 539v-746h-97v267q-52 -73 -145 -73q-94 0 -146.5 75t-52.5 209q0 133 54.5 207t152.5 74q46 0 83.5 -18.5t61.5 -52.5v58h89zM339.5 92.5q28.5 13.5 54.5 43.5v272q-23 27 -55 41.5t-67 14.5q-61 0 -91.5 -48t-30.5 -143q0 -194 128 -194q33 0 61.5 13.5z" />
    <glyph glyph-name="r" unicode="r" horiz-adv-x="401" 
d="M383 537l-21 -93q-37 10 -68 10q-37 0 -64 -15t-48 -46v-393h-97v539h89v-79q55 90 144 90q35 0 65 -13z" />
    <glyph glyph-name="s" unicode="s" horiz-adv-x="466" 
d="M119.5 1q-49.5 13 -86.5 37l35 81q73 -45 154 -45q107 0 107 73q0 29 -17.5 46.5t-56.5 26.5l-71 17q-74 17 -108.5 53.5t-34.5 97.5q0 77 51 120t143 43q46 0 91.5 -11t82.5 -31l-37 -80q-74 36 -139 36q-48 0 -72.5 -17.5t-24.5 -50.5q0 -27 18 -44t56 -26l71 -17
q74 -17 108.5 -54.5t34.5 -99.5q0 -79 -53.5 -123.5t-148.5 -44.5q-53 0 -102.5 13z" />
    <glyph glyph-name="t" unicode="t" horiz-adv-x="391" 
d="M106 169v287h-89v83h90v155h96v-155h157v-83h-157v-271q0 -55 22.5 -80.5t69.5 -25.5q28 0 56 9l16 -83q-40 -12 -87 -12q-174 0 -174 176z" />
    <glyph glyph-name="u" unicode="u" horiz-adv-x="575" 
d="M490 539v-539h-89v69q-59 -82 -161 -82q-77 0 -119.5 45.5t-42.5 127.5v379h97v-368q0 -92 97 -92q36 0 65 13t56 42v405h97z" />
    <glyph glyph-name="v" unicode="v" horiz-adv-x="522" 
d="M497 539l-183 -539h-105l-184 539h102l136 -439l134 439h100z" />
    <glyph glyph-name="w" unicode="w" horiz-adv-x="784" 
d="M757 539l-155 -539h-106l-105 413l-104 -413h-106l-154 539h101l108 -437l106 437h100l109 -437l106 437h100z" />
    <glyph glyph-name="x" unicode="x" horiz-adv-x="509" 
d="M372 0l-120 198l-117 -198h-108l174 273l-167 266h110l112 -188l116 188h109l-173 -264l175 -275h-111z" />
    <glyph glyph-name="y" unicode="y" horiz-adv-x="518" 
d="M493 539l-180 -532q-27 -81 -89 -136.5t-162 -89.5l-34 83q71 25 114 56.5t68 76.5l-185 542h102l133 -431l133 431h100z" />
    <glyph glyph-name="z" unicode="z" horiz-adv-x="467" 
d="M427 82v-82h-389v82l275 375h-266v82h376v-82l-275 -375h279z" />
    <glyph glyph-name="braceleft" unicode="{" horiz-adv-x="376" 
d="M208.5 -74q-40.5 26 -58.5 69t-18 113v116q0 40 -27.5 59t-84.5 20v78q57 1 84.5 20t27.5 59v117q0 69 18 112t58.5 69t113.5 42l22 -76q-49 -12 -75 -28.5t-36.5 -44t-10.5 -74.5v-117q0 -49 -20 -77.5t-61 -39.5q41 -11 61 -40.5t20 -78.5v-116q0 -48 10.5 -75.5
t36.5 -44t75 -28.5l-22 -76q-73 16 -113.5 42z" />
    <glyph glyph-name="bar" unicode="|" horiz-adv-x="255" 
d="M90 816h74v-1066h-74v1066z" />
    <glyph glyph-name="braceright" unicode="}" horiz-adv-x="376" 
d="M32 -40q50 12 75.5 28.5t36 44t10.5 75.5v116q0 49 20 78.5t61 40.5q-41 11 -61 39.5t-20 77.5v117q0 47 -10.5 74.5t-36.5 44t-75 28.5l22 76q73 -16 113.5 -42t58.5 -69t18 -112v-117q0 -40 27.5 -59t84.5 -20v-78q-57 -1 -84.5 -20t-27.5 -59v-116q0 -70 -18 -113
t-58.5 -69t-113.5 -42z" />
    <glyph glyph-name="asciitilde" unicode="~" horiz-adv-x="574" 
d="M325 294.5q-21 8.5 -47 24.5q-22 15 -38.5 22t-36.5 7q-25 0 -47.5 -13.5t-46.5 -42.5l-58 60q71 84 150 84q27 0 48 -8.5t47 -24.5q24 -15 40 -22t36 -7q24 0 46.5 13.5t46.5 42.5l58 -60q-70 -84 -150 -84q-27 0 -48 8.5z" />
    <glyph glyph-name="uni00A0" unicode="&#xa0;" horiz-adv-x="220" 
 />
    <glyph glyph-name="exclamdown" unicode="&#xa1;" horiz-adv-x="353" 
d="M225.5 529.5q17.5 -17.5 17.5 -47.5q0 -32 -17.5 -49t-49.5 -17q-31 0 -48.5 17.5t-17.5 47.5q0 31 17.5 48.5t48.5 17.5q32 0 49.5 -17.5zM233 -190h-111l16 520h78z" />
    <glyph glyph-name="cent" unicode="&#xa2;" horiz-adv-x="479" 
d="M312 27v-112h-73v115q-92 14 -142.5 79.5t-50.5 172.5q0 102 52 169.5t141 81.5v115h73v-113q71 -5 123 -39l-35 -73q-43 21 -88 27v-337q48 3 96 30l33 -72q-55 -39 -129 -44zM166.5 173q23.5 -41 72.5 -54v328q-96 -24 -96 -161q0 -72 23.5 -113z" />
    <glyph glyph-name="sterling" unicode="&#xa3;" horiz-adv-x="532" 
d="M157 87h318v-87h-412v87l32 36q35 38 50.5 81t15.5 97q0 15 -1 22h-106v83h88l-15 34q-15 35 -22.5 59.5t-7.5 58.5q0 85 52.5 132t147.5 47q56 0 102 -16t78 -47l-48 -80q-59 50 -132 50q-99 0 -99 -88q0 -23 6 -43t19 -52q17 -40 21 -55h168v-83h-155v-9
q0 -131 -100 -227z" />
    <glyph glyph-name="currency" unicode="&#xa4;" horiz-adv-x="593" 
d="M474 138l69 -87l-59 -47l-69 85q-49 -27 -118 -27q-70 0 -118 27l-69 -85l-60 47l69 87q-51 65 -51 175q0 111 51 174l-69 87l60 47l69 -85q48 27 118 27q69 0 118 -27l69 85l59 -47l-69 -87q52 -64 52 -174q0 -111 -52 -175zM394 190.5q33 41.5 33 122.5q0 163 -130 163
t-130 -163q0 -81 33 -122.5t97 -41.5t97 41.5z" />
    <glyph glyph-name="yen" unicode="&#xa5;" horiz-adv-x="538" 
d="M348 336h109v-72h-140v-75h140v-72h-140v-117h-97v117h-140v72h140v75h-140v72h109l-169 388h106l145 -376l143 376h105z" />
    <glyph glyph-name="brokenbar" unicode="&#xa6;" horiz-adv-x="255" 
d="M90 816h74v-447h-74v447zM90 198h74v-448h-74v448z" />
    <glyph glyph-name="section" unicode="&#xa7;" horiz-adv-x="533" 
d="M469 -23q0 -90 -54 -140t-151 -50q-49 0 -102.5 13.5t-98.5 37.5l35 83q97 -46 166 -46q55 0 82 23.5t27 72.5q0 40 -20 63.5t-68 36.5l-62 18q-83 23 -121.5 67t-38.5 116q0 86 53 145q-48 45 -48 126q0 91 55 142t154 51q44 0 90 -10t83 -28l-34 -82q-78 32 -141 32
q-57 0 -84 -24t-27 -74q0 -41 20 -64t67 -36l62 -17q81 -23 119 -67.5t38 -116.5q0 -84 -51 -143q50 -47 50 -129zM314 160l36 -12q30 38 30 87q0 43 -22 68t-74 40l-62 18q-14 4 -38 14q-31 -38 -31 -87q0 -43 23 -68.5t76 -41.5z" />
    <glyph glyph-name="dieresis" unicode="&#xa8;" horiz-adv-x="500" 
d="M112.5 639q-15.5 16 -15.5 43q0 29 15.5 44.5t43.5 15.5q27 0 42.5 -16t15.5 -43q0 -29 -15 -44.5t-43 -15.5t-43.5 16zM301.5 639q-15.5 16 -15.5 43q0 29 15 44.5t43 15.5t43.5 -16t15.5 -43q0 -29 -15.5 -44.5t-43.5 -15.5q-27 0 -42.5 16z" />
    <glyph glyph-name="copyright" unicode="&#xa9;" horiz-adv-x="833" 
d="M240.5 31q-74.5 44 -114.5 128.5t-40 202.5t40 202.5t114.5 128.5t176.5 44t176 -44t114 -128.5t40 -202.5t-40 -202.5t-114 -128.5t-176 -44t-176.5 44zM612 132.5q69 81.5 69 229.5t-69 229.5t-195 81.5q-127 0 -196 -81t-69 -230t69 -230t196 -81q126 0 195 81.5z
M313 226q-42 48 -42 135q0 88 41 136.5t116 48.5q30 0 57.5 -7.5t48.5 -21.5l-28 -59q-43 22 -79 22q-83 0 -83 -115q0 -121 91 -121q40 0 77 22l25 -58q-19 -14 -46.5 -22t-59.5 -8q-76 0 -118 48z" />
    <glyph glyph-name="ordfeminine" unicode="&#xaa;" horiz-adv-x="518" 
d="M375.5 695.5q43.5 -34.5 43.5 -95.5v-272q-36 -19 -81.5 -29t-91.5 -10q-85 0 -131.5 35t-46.5 98q0 76 62 109t203 33v22q0 66 -91 66q-56 0 -112 -24l-23 68q65 34 147 34q78 0 121.5 -34.5zM176.5 379.5q23.5 -15.5 69.5 -15.5q54 0 87 13v124q-95 0 -137.5 -18
t-42.5 -58q0 -30 23.5 -45.5zM92 191h323v-73h-323v73z" />
    <glyph glyph-name="guillemotleft" unicode="&#xab;" horiz-adv-x="591" 
d="M383 289l171 -197l-62 -59l-220 254l221 255l61 -59zM144 289l171 -197l-62 -59l-220 254l221 255l61 -59z" />
    <glyph glyph-name="logicalnot" unicode="&#xac;" horiz-adv-x="574" 
d="M509 497v-90v-169h-91v169h-353v90h444z" />
    <glyph glyph-name="uni00AD" unicode="&#xad;" horiz-adv-x="408" 
d="M50 338h308v-80h-308v80z" />
    <glyph glyph-name="registered" unicode="&#xae;" horiz-adv-x="833" 
d="M593 693q74 -44 114 -128.5t40 -202.5t-40 -202.5t-114 -128.5t-176 -44t-176.5 44t-114.5 128.5t-40 202.5t40 202.5t114.5 128.5t176.5 44t176 -44zM612 132.5q69 81.5 69 229.5t-69 229.5t-195 81.5q-127 0 -196 -81t-69 -230t69 -230t196 -81q126 0 195 81.5z
M527 351q-15 -28 -44 -42l74 -125h-80l-61 113h-46v-113h-68v356h124q55 0 85.5 -32t30.5 -89q0 -40 -15 -68zM370 357h54q46 0 46 59q0 61 -49 61h-51v-120z" />
    <glyph glyph-name="macron" unicode="&#xaf;" horiz-adv-x="500" 
d="M99 710h302v-71h-302v71z" />
    <glyph glyph-name="degree" unicode="&#xb0;" horiz-adv-x="451" 
d="M98 429.5q-49 49.5 -49 128.5t49 128.5t128 49.5q78 0 127 -49.5t49 -128.5t-49 -128.5t-127 -49.5q-79 0 -128 49.5zM290 490q25 26 25 68t-25 68t-64 26q-40 0 -64.5 -26t-24.5 -68t24.5 -68t64.5 -26q39 0 64 26z" />
    <glyph glyph-name="plusminus" unicode="&#xb1;" horiz-adv-x="574" 
d="M523 495v-88h-190v-181h-92v181h-190v88h190v181h92v-181h190zM51 163h472v-86h-472v86z" />
    <glyph glyph-name="uni00B2" unicode="&#xb2;" horiz-adv-x="378" 
d="M329 397v-70h-299v70l161 164q27 29 36.5 46t9.5 38q0 57 -62 57q-52 0 -113 -39l-36 61q73 53 156 53q66 0 102.5 -33t36.5 -93q0 -35 -16 -65t-58 -71l-118 -118h200z" />
    <glyph glyph-name="uni00B3" unicode="&#xb3;" horiz-adv-x="402" 
d="M309 558.5q34 -34.5 34 -93.5q0 -69 -45.5 -107t-127.5 -38q-87 0 -144 42l30 66q54 -33 114 -33q88 0 88 71q0 67 -82 67q-26 0 -49 -6l-30 41l131 132h-190v70h285v-70l-110 -102q62 -5 96 -39.5z" />
    <glyph glyph-name="acute" unicode="&#xb4;" horiz-adv-x="500" 
d="M191 625l100 159h106v-10l-132 -159h-74v10z" />
    <glyph glyph-name="uni00B5" unicode="&#xb5;" horiz-adv-x="588" 
d="M503 539v-539h-88v70q-56 -80 -155 -80q-49 0 -78 23v-220h-97v510v236h97v-362q0 -49 26 -74t74 -25q38 0 67.5 13.5t56.5 42.5v405h97z" />
    <glyph glyph-name="paragraph" unicode="&#xb6;" horiz-adv-x="574" 
d="M483 0h-77v648h-76v-648h-76v316q-107 1 -166.5 54.5t-59.5 148.5q0 97 61.5 151t171.5 54h222v-724z" />
    <glyph glyph-name="periodcentered" unicode="&#xb7;" horiz-adv-x="254" 
d="M78.5 287.5q-17.5 17.5 -17.5 47.5q0 32 17.5 49t48.5 17t48.5 -17.5t17.5 -47.5q0 -31 -17 -48.5t-49 -17.5q-31 0 -48.5 17.5z" />
    <glyph glyph-name="cedilla" unicode="&#xb8;" horiz-adv-x="500" 
d="M340.5 -77.5q28.5 -21.5 28.5 -60.5q0 -45 -32.5 -69.5t-91.5 -24.5q-60 0 -108 24l18 51q51 -18 84 -18q52 0 52 36q0 35 -47 35q-21 0 -43 -8l-24 28l44 104l70 -6l-50 -72q14 2 21 2q50 0 78.5 -21.5z" />
    <glyph glyph-name="uni00B9" unicode="&#xb9;" horiz-adv-x="342" 
d="M224 770v-443h-82v360l-96 -33l-23 65l134 51h67z" />
    <glyph glyph-name="ordmasculine" unicode="&#xba;" horiz-adv-x="524" 
d="M120 344.5q-50 56.5 -50 165.5q0 108 50 164.5t143 56.5q92 0 141.5 -56.5t49.5 -164.5q0 -109 -50 -165.5t-142 -56.5t-142 56.5zM340 401q26 37 26 109q0 145 -103 145q-52 0 -78.5 -36.5t-26.5 -108.5t26 -109t78 -37t78 37zM101 191h323v-73h-323v73z" />
    <glyph glyph-name="guillemotright" unicode="&#xbb;" horiz-adv-x="591" 
d="M319 288l-221 -255l-61 59l171 195l-171 196l62 59zM558 288l-221 -255l-61 59l171 195l-171 196l62 59z" />
    <glyph glyph-name="onequarter" unicode="&#xbc;" horiz-adv-x="906" 
d="M677 702l-417 -718l-67 38l417 718zM142 281v360l-96 -33l-23 65l134 51h67v-443h-82zM876 150v-68h-55v-82h-79v82h-206v68l170 293h115v-293h55zM742 150v224l-123 -224h123z" />
    <glyph glyph-name="onehalf" unicode="&#xbd;" horiz-adv-x="944" 
d="M677 702l-417 -718l-67 38l417 718zM142 281v360l-96 -33l-23 65l134 51h67v-443h-82zM897 70v-70h-299v70l161 164q27 29 36.5 46t9.5 38q0 57 -62 57q-53 0 -113 -40l-36 62q73 53 156 53q66 0 102.5 -33t36.5 -93q0 -35 -16 -65t-58 -71l-118 -118h200z" />
    <glyph glyph-name="threequarters" unicode="&#xbe;" horiz-adv-x="984" 
d="M755 702l-417 -718l-67 38l417 718zM297.5 312q-45.5 -38 -127.5 -38q-87 0 -144 42l30 66q54 -33 114 -33q88 0 88 71q0 67 -82 67q-26 0 -49 -6l-30 41l131 132h-190v70h285v-70l-109 -102q62 -5 95.5 -40t33.5 -93q0 -69 -45.5 -107zM954 150v-68h-55v-82h-79v82h-206
v68l170 293h115v-293h55zM820 150v224l-123 -224h123z" />
    <glyph glyph-name="questiondown" unicode="&#xbf;" horiz-adv-x="467" 
d="M336 529.5q18 -17.5 18 -47.5q0 -31 -17.5 -48.5t-49.5 -17.5q-31 0 -48.5 17.5t-17.5 47.5q0 31 17.5 48.5t48.5 17.5t49 -17.5zM337 273q0 -57 -22.5 -95.5t-83.5 -87.5q-41 -32 -55 -53.5t-14 -52.5q0 -94 108 -94q76 0 158 51l40 -82q-44 -30 -96 -46t-108 -16
q-97 0 -151 48t-54 134q0 50 22 86.5t80 80.5q50 38 67 64.5t17 65.5q0 20 -3 54h92q3 -37 3 -57z" />
    <glyph glyph-name="Agrave" unicode="&#xc0;" horiz-adv-x="668" 
d="M320 781l-173 133v12h117l140 -133v-12h-84zM477 182h-288l-59 -182h-105l254 724h110l253 -724h-106zM448 269l-116 355l-115 -355h231z" />
    <glyph glyph-name="Aacute" unicode="&#xc1;" horiz-adv-x="668" 
d="M347 781h-84v12l150 133h116v-12zM477 182h-288l-59 -182h-105l254 724h110l253 -724h-106zM448 269l-116 355l-115 -355h231z" />
    <glyph glyph-name="Acircumflex" unicode="&#xc2;" horiz-adv-x="668" 
d="M240 781h-73v12l117 133h100l117 -133v-12h-76l-93 87zM477 182h-288l-59 -182h-105l254 724h110l253 -724h-106zM448 269l-116 355l-115 -355h231z" />
    <glyph glyph-name="Atilde" unicode="&#xc3;" horiz-adv-x="668" 
d="M221 790h-59q2 63 28.5 99t73.5 36q26 0 45.5 -10t44.5 -28q18 -13 29 -19t23 -6q34 0 41 61h59q-2 -63 -28.5 -99t-73.5 -36q-26 0 -45.5 10t-44.5 28q-18 13 -29 19t-23 6q-34 0 -41 -61zM477 182h-288l-59 -182h-105l254 724h110l253 -724h-106zM448 269l-116 355
l-115 -355h231z" />
    <glyph glyph-name="Adieresis" unicode="&#xc4;" horiz-adv-x="668" 
d="M191.5 804q-15.5 16 -15.5 43q0 28 15.5 44t43.5 16q27 0 42.5 -16t15.5 -43q0 -29 -15 -44.5t-43 -15.5t-43.5 16zM390.5 804q-15.5 16 -15.5 43q0 28 15.5 44t43.5 16q27 0 42.5 -16t15.5 -43q0 -29 -15 -44.5t-43 -15.5t-43.5 16zM477 182h-288l-59 -182h-105l254 724
h110l253 -724h-106zM448 269l-116 355l-115 -355h231z" />
    <glyph glyph-name="Aring" unicode="&#xc5;" horiz-adv-x="668" 
d="M242.5 796.5q-32.5 29.5 -32.5 82.5q0 52 32.5 81.5t91.5 29.5t91.5 -29.5t32.5 -81.5q0 -53 -32.5 -82.5t-91.5 -29.5t-91.5 29.5zM276 879q0 -58 58 -58t58 58t-58 58t-58 -58zM477 182h-288l-59 -182h-105l254 724h110l253 -724h-106zM448 269l-116 355l-115 -355h231
z" />
    <glyph glyph-name="AE" unicode="&#xc6;" horiz-adv-x="911" 
d="M872 89v-89h-429v173h-249l-91 -173h-107l384 724h100h379v-89h-320v-220h235v-90h-235v-236h333zM443 260v392l-204 -392h204z" />
    <glyph glyph-name="Ccedilla" unicode="&#xc7;" horiz-adv-x="601" 
d="M441.5 -77.5q28.5 -21.5 28.5 -60.5q0 -45 -32.5 -69.5t-91.5 -24.5q-60 0 -108 24l18 51q51 -18 84 -18q52 0 52 36q0 35 -47 35q-21 0 -43 -8l-24 28l32 76q-125 19 -193.5 111.5t-68.5 244.5q0 117 39.5 205t111.5 136t169 48q51 0 101 -13.5t90 -37.5l-36 -78
q-80 39 -157 39q-102 0 -158.5 -76.5t-56.5 -214.5q0 -136 57.5 -206t170.5 -70q91 0 150 35l36 -77q-32 -24 -82.5 -37t-108.5 -13l-32 -46q14 2 21 2q50 0 78.5 -21.5z" />
    <glyph glyph-name="Egrave" unicode="&#xc8;" horiz-adv-x="576" 
d="M296 781l-173 133v12h117l140 -133v-12h-84zM536 89v-89h-446v724h433v-89h-334v-220h249v-90h-249v-236h347z" />
    <glyph glyph-name="Eacute" unicode="&#xc9;" horiz-adv-x="576" 
d="M323 781h-84v12l150 133h116v-12zM536 89v-89h-446v724h433v-89h-334v-220h249v-90h-249v-236h347z" />
    <glyph glyph-name="Ecircumflex" unicode="&#xca;" horiz-adv-x="576" 
d="M216 781h-73v12l117 133h100l117 -133v-12h-76l-93 87zM536 89v-89h-446v724h433v-89h-334v-220h249v-90h-249v-236h347z" />
    <glyph glyph-name="Edieresis" unicode="&#xcb;" horiz-adv-x="576" 
d="M167.5 804q-15.5 16 -15.5 43q0 28 15.5 44t43.5 16q27 0 42.5 -16t15.5 -43q0 -29 -15 -44.5t-43 -15.5t-43.5 16zM366.5 804q-15.5 16 -15.5 43q0 28 15.5 44t43.5 16q27 0 42.5 -16t15.5 -43q0 -29 -15 -44.5t-43 -15.5t-43.5 16zM536 89v-89h-446v724h433v-89h-334
v-220h249v-90h-249v-236h347z" />
    <glyph glyph-name="Igrave" unicode="&#xcc;" horiz-adv-x="283" 
d="M-45 914v12h117l140 -133v-12h-84zM92 724h99v-724h-99v724z" />
    <glyph glyph-name="Iacute" unicode="&#xcd;" horiz-adv-x="283" 
d="M71 793l150 133h116v-12l-182 -133h-84v12zM92 724h99v-724h-99v724z" />
    <glyph glyph-name="Icircumflex" unicode="&#xce;" horiz-adv-x="283" 
d="M309 793v-12h-76l-93 87l-92 -87h-73v12l117 133h100zM92 724h99v-724h-99v724z" />
    <glyph glyph-name="Idieresis" unicode="&#xcf;" horiz-adv-x="283" 
d="M-0.5 804q-15.5 16 -15.5 43q0 28 15.5 44t43.5 16q27 0 42.5 -16t15.5 -43q0 -29 -15 -44.5t-43 -15.5t-43.5 16zM198.5 804q-15.5 16 -15.5 43q0 28 15.5 44t43.5 16q27 0 42.5 -16t15.5 -43q0 -29 -15 -44.5t-43 -15.5t-43.5 16zM92 724h99v-724h-99v724z" />
    <glyph glyph-name="Eth" unicode="&#xd0;" horiz-adv-x="690" 
d="M548 632.5q85 -91.5 85 -270.5t-86 -270.5t-248 -91.5h-209v326h-66v81h66v317h211q162 0 247 -91.5zM471.5 158q58.5 69 58.5 204q0 136 -58.5 204.5t-173.5 68.5h-109v-228h176v-81h-176v-237h111q113 0 171.5 69z" />
    <glyph glyph-name="Ntilde" unicode="&#xd1;" horiz-adv-x="724" 
d="M249 790h-59q2 63 28.5 99t73.5 36q26 0 45.5 -10t44.5 -28q18 -13 29 -19t23 -6q34 0 41 61h59q-2 -63 -28.5 -99t-73.5 -36q-26 0 -45.5 10t-44.5 28q-18 13 -29 19t-23 6q-34 0 -41 -61zM633 724v-724h-94l-352 556v-556h-97v724h94l352 -555v555h97z" />
    <glyph glyph-name="Ograve" unicode="&#xd2;" horiz-adv-x="714" 
d="M170 914v12h117l140 -133v-12h-84zM134.5 82q-76.5 95 -76.5 280t76.5 280t222.5 95q145 0 222 -95t77 -280t-77 -280t-222 -95q-146 0 -222.5 95zM503.5 148q49.5 72 49.5 214t-49.5 214t-146.5 72t-146.5 -72t-49.5 -214t49.5 -214t146.5 -72t146.5 72z" />
    <glyph glyph-name="Oacute" unicode="&#xd3;" horiz-adv-x="714" 
d="M286 793l150 133h116v-12l-182 -133h-84v12zM134.5 82q-76.5 95 -76.5 280t76.5 280t222.5 95q145 0 222 -95t77 -280t-77 -280t-222 -95q-146 0 -222.5 95zM503.5 148q49.5 72 49.5 214t-49.5 214t-146.5 72t-146.5 -72t-49.5 -214t49.5 -214t146.5 -72t146.5 72z" />
    <glyph glyph-name="Ocircumflex" unicode="&#xd4;" horiz-adv-x="714" 
d="M263 781h-73v12l117 133h100l117 -133v-12h-76l-93 87zM579 642q77 -95 77 -280t-77 -280t-222 -95q-146 0 -222.5 95t-76.5 280t76.5 280t222.5 95q145 0 222 -95zM503.5 148q49.5 72 49.5 214t-49.5 214t-146.5 72t-146.5 -72t-49.5 -214t49.5 -214t146.5 -72t146.5 72
z" />
    <glyph glyph-name="Otilde" unicode="&#xd5;" horiz-adv-x="714" 
d="M381.5 798q-19.5 10 -44.5 28q-18 13 -29 19t-23 6q-34 0 -41 -61h-59q2 63 28.5 99t73.5 36q26 0 45.5 -10t44.5 -28q18 -13 29 -19t23 -6q34 0 41 61h59q-2 -63 -28.5 -99t-73.5 -36q-26 0 -45.5 10zM134.5 82q-76.5 95 -76.5 280t76.5 280t222.5 95q145 0 222 -95
t77 -280t-77 -280t-222 -95q-146 0 -222.5 95zM503.5 148q49.5 72 49.5 214t-49.5 214t-146.5 72t-146.5 -72t-49.5 -214t49.5 -214t146.5 -72t146.5 72z" />
    <glyph glyph-name="Odieresis" unicode="&#xd6;" horiz-adv-x="714" 
d="M214.5 804q-15.5 16 -15.5 43q0 28 15.5 44t43.5 16q27 0 42.5 -16t15.5 -43q0 -29 -15 -44.5t-43 -15.5t-43.5 16zM413.5 804q-15.5 16 -15.5 43q0 28 15.5 44t43.5 16q27 0 42.5 -16t15.5 -43q0 -29 -15 -44.5t-43 -15.5t-43.5 16zM134.5 82q-76.5 95 -76.5 280
t76.5 280t222.5 95q145 0 222 -95t77 -280t-77 -280t-222 -95q-146 0 -222.5 95zM503.5 148q49.5 72 49.5 214t-49.5 214t-146.5 72t-146.5 -72t-49.5 -214t49.5 -214t146.5 -72t146.5 72z" />
    <glyph glyph-name="multiply" unicode="&#xd7;" horiz-adv-x="574" 
d="M348 368l156 -164l-62 -63l-155 163l-155 -163l-62 63l156 164l-156 164l62 63l155 -163l155 163l62 -63z" />
    <glyph glyph-name="Oslash" unicode="&#xd8;" horiz-adv-x="714" 
d="M686 723l-88 -110q58 -95 58 -251q0 -185 -77 -280t-222 -95q-123 0 -196 69l-50 -66h-83v11l88 110q-58 95 -58 251q0 185 76.5 280t222.5 95q121 0 195 -69l50 66h84v-11zM208 578q-50 -73 -50 -216q0 -106 23 -169l315 403q-48 55 -139 55q-99 0 -149 -73zM505.5 146
q50.5 73 50.5 216q0 102 -23 169l-316 -403q48 -55 140 -55q98 0 148.5 73z" />
    <glyph glyph-name="Ugrave" unicode="&#xd9;" horiz-adv-x="686" 
d="M156 914v12h117l140 -133v-12h-84zM152.5 57q-67.5 70 -67.5 197v470h99v-466q0 -90 40 -136t118 -46q159 0 159 182v466h99v-470q0 -127 -68 -197t-190 -70t-189.5 70z" />
    <glyph glyph-name="Uacute" unicode="&#xda;" horiz-adv-x="686" 
d="M272 793l150 133h116v-12l-182 -133h-84v12zM152.5 57q-67.5 70 -67.5 197v470h99v-466q0 -90 40 -136t118 -46q159 0 159 182v466h99v-470q0 -127 -68 -197t-190 -70t-189.5 70z" />
    <glyph glyph-name="Ucircumflex" unicode="&#xdb;" horiz-adv-x="686" 
d="M249 781h-73v12l117 133h100l117 -133v-12h-76l-93 87zM600 724v-470q0 -127 -68 -197t-190 -70t-189.5 70t-67.5 197v470h99v-466q0 -90 40 -136t118 -46q159 0 159 182v466h99z" />
    <glyph glyph-name="Udieresis" unicode="&#xdc;" horiz-adv-x="686" 
d="M200.5 804q-15.5 16 -15.5 43q0 28 15.5 44t43.5 16q27 0 42.5 -16t15.5 -43q0 -29 -15 -44.5t-43 -15.5t-43.5 16zM399.5 804q-15.5 16 -15.5 43q0 28 15.5 44t43.5 16q27 0 42.5 -16t15.5 -43q0 -29 -15 -44.5t-43 -15.5t-43.5 16zM152.5 57q-67.5 70 -67.5 197v470h99
v-466q0 -90 40 -136t118 -46q159 0 159 182v466h99v-470q0 -127 -68 -197t-190 -70t-189.5 70z" />
    <glyph glyph-name="Yacute" unicode="&#xdd;" horiz-adv-x="588" 
d="M306 781h-84v12l150 133h116v-12zM566 724l-224 -472v-252h-99v252l-222 472h108l166 -362l164 362h107z" />
    <glyph glyph-name="Thorn" unicode="&#xde;" horiz-adv-x="615" 
d="M511.5 543q60.5 -61 60.5 -172q0 -112 -62 -173.5t-173 -61.5h-148v-136h-99v724h99v-120h152q110 0 170.5 -61zM436.5 261.5q32.5 36.5 32.5 108.5t-33.5 108.5t-98.5 36.5h-148v-290h152q63 0 95.5 36.5z" />
    <glyph glyph-name="germandbls" unicode="&#xdf;" horiz-adv-x="599" 
d="M512 345.5q47 -56.5 47 -145.5q0 -98 -56 -152.5t-157 -54.5q-51 0 -104 14l21 82q39 -12 83 -12q119 0 119 118q0 75 -49.5 116.5t-146.5 46.5v78q64 29 93.5 67t29.5 92q0 99 -95 99q-57 0 -86 -35t-29 -103v-556h-97v556q0 106 55 165t154 59q90 0 140 -47t50 -132
q0 -122 -108 -180q89 -19 136 -75.5z" />
    <glyph glyph-name="agrave" unicode="&#xe0;" horiz-adv-x="531" 
d="M399.5 507.5q53.5 -44.5 53.5 -128.5v-379h-88v71q-52 -82 -161 -82q-79 0 -122.5 42t-43.5 119q0 96 77 141.5t242 46.5v31q0 46 -30 70t-88 24q-66 0 -126 -28l-25 78q79 39 166 39q92 0 145.5 -44.5zM357 134v133q-117 -2 -171 -28t-54 -82q0 -41 24 -62t71 -21
q75 0 130 60zM119 774v10h106l92 -159v-10h-74z" />
    <glyph glyph-name="aacute" unicode="&#xe1;" horiz-adv-x="531" 
d="M399.5 507.5q53.5 -44.5 53.5 -128.5v-379h-88v71q-52 -82 -161 -82q-79 0 -122.5 42t-43.5 119q0 96 77 141.5t242 46.5v31q0 46 -30 70t-88 24q-66 0 -126 -28l-25 78q79 39 166 39q92 0 145.5 -44.5zM357 134v133q-117 -2 -171 -28t-54 -82q0 -41 24 -62t71 -21
q75 0 130 60zM195 625l99 159h107v-10l-132 -159h-74v10z" />
    <glyph glyph-name="acircumflex" unicode="&#xe2;" horiz-adv-x="531" 
d="M399.5 507.5q53.5 -44.5 53.5 -128.5v-379h-88v71q-52 -82 -161 -82q-79 0 -122.5 42t-43.5 119q0 96 77 141.5t242 46.5v31q0 46 -30 70t-88 24q-66 0 -126 -28l-25 78q79 39 166 39q92 0 145.5 -44.5zM357 134v133q-117 -2 -171 -28t-54 -82q0 -41 24 -62t71 -21
q75 0 130 60zM403 625v-10h-70l-81 103l-80 -103h-67v10l102 159h94z" />
    <glyph glyph-name="atilde" unicode="&#xe3;" horiz-adv-x="531" 
d="M399.5 507.5q53.5 -44.5 53.5 -128.5v-379h-88v71q-52 -82 -161 -82q-79 0 -122.5 42t-43.5 119q0 96 77 141.5t242 46.5v31q0 46 -30 70t-88 24q-66 0 -126 -28l-25 78q79 39 166 39q92 0 145.5 -44.5zM357 134v133q-117 -2 -171 -28t-54 -82q0 -41 24 -62t71 -21
q75 0 130 60zM278.5 628q-19.5 10 -44.5 28q-18 13 -29 19t-23 6q-34 0 -41 -61h-59q2 63 28.5 99t73.5 36q26 0 45.5 -10t44.5 -28q18 -13 29 -19t23 -6q34 0 41 61h59q-2 -63 -28.5 -99t-73.5 -36q-26 0 -45.5 10z" />
    <glyph glyph-name="adieresis" unicode="&#xe4;" horiz-adv-x="531" 
d="M116.5 639q-15.5 16 -15.5 43q0 28 15.5 44t43.5 16q27 0 42.5 -16t15.5 -43q0 -29 -15 -44.5t-43 -15.5t-43.5 16zM305.5 639q-15.5 16 -15.5 43q0 28 15.5 44t43.5 16q27 0 42.5 -16t15.5 -43q0 -29 -15 -44.5t-43 -15.5t-43.5 16zM399.5 507.5q53.5 -44.5 53.5 -128.5
v-379h-88v71q-52 -82 -161 -82q-79 0 -122.5 42t-43.5 119q0 96 77 141.5t242 46.5v31q0 46 -30 70t-88 24q-66 0 -126 -28l-25 78q79 39 166 39q92 0 145.5 -44.5zM357 134v133q-117 -2 -171 -28t-54 -82q0 -41 24 -62t71 -21q75 0 130 60z" />
    <glyph glyph-name="aring" unicode="&#xe5;" horiz-adv-x="531" 
d="M399.5 507.5q53.5 -44.5 53.5 -128.5v-379h-88v71q-52 -82 -161 -82q-79 0 -122.5 42t-43.5 119q0 96 77 141.5t242 46.5v31q0 46 -30 70t-88 24q-66 0 -126 -28l-25 78q79 39 166 39q92 0 145.5 -44.5zM357 134v133q-117 -2 -171 -28t-54 -82q0 -41 24 -62t71 -21
q75 0 130 60zM163.5 631.5q-32.5 29.5 -32.5 82.5q0 52 32.5 81.5t90.5 29.5t90.5 -29.5t32.5 -81.5q0 -53 -32.5 -82.5t-90.5 -29.5t-90.5 29.5zM312 714q0 59 -58 59t-58 -59t58 -59t58 59z" />
    <glyph glyph-name="ae" unicode="&#xe6;" horiz-adv-x="828" 
d="M780 241h-339q6 -81 44 -122.5t108 -41.5q67 0 131 38l36 -75q-34 -25 -80 -38.5t-95 -13.5q-66 0 -115.5 25.5t-79.5 74.5q-41 -51 -87.5 -75t-103.5 -24q-76 0 -118.5 42t-42.5 118q0 93 75 137t235 45v38q0 94 -113 94q-63 0 -122 -28l-25 78q79 39 162 39
q56 0 96 -20t62 -58q25 38 66 58t93 20q103 0 160 -68.5t57 -191.5q0 -32 -4 -51zM480 427.5q-31 -38.5 -38 -113.5h245q-2 72 -33.5 112t-88.5 40q-54 0 -85 -38.5zM362 151q-14 46 -16 109q-110 -2 -162 -27t-52 -77q0 -82 91 -82q79 0 139 77z" />
    <glyph glyph-name="ccedilla" unicode="&#xe7;" horiz-adv-x="481" 
d="M356.5 -77.5q28.5 -21.5 28.5 -60.5q0 -45 -32.5 -69.5t-91.5 -24.5q-60 0 -108 24l18 51q51 -18 84 -18q52 0 52 36q0 35 -47 35q-21 0 -43 -8l-24 28l33 79q-86 20 -133 90t-47 182q0 85 30 149.5t85 100t127 35.5q41 0 82.5 -12.5t74.5 -33.5l-36 -77q-67 34 -123 34
q-66 0 -103 -50t-37 -139q0 -97 38.5 -146.5t114.5 -49.5q61 0 117 32l35 -76q-30 -22 -70.5 -34t-87.5 -12h-4l-32 -46q14 2 21 2q50 0 78.5 -21.5z" />
    <glyph glyph-name="egrave" unicode="&#xe8;" horiz-adv-x="541" 
d="M493 241h-347q12 -164 156 -164q72 0 136 38l35 -75q-34 -25 -81 -38.5t-98 -13.5q-117 0 -181.5 74t-64.5 207q0 134 60 208.5t168 74.5q105 0 163 -68.5t58 -191.5q0 -31 -4 -51zM186 427.5q-32 -38.5 -39 -113.5h253q-1 72 -34 112t-92 40q-56 0 -88 -38.5zM141 774
v10h106l92 -159v-10h-74z" />
    <glyph glyph-name="eacute" unicode="&#xe9;" horiz-adv-x="541" 
d="M493 241h-347q12 -164 156 -164q72 0 136 38l35 -75q-34 -25 -81 -38.5t-98 -13.5q-117 0 -181.5 74t-64.5 207q0 134 60 208.5t168 74.5q105 0 163 -68.5t58 -191.5q0 -31 -4 -51zM186 427.5q-32 -38.5 -39 -113.5h253q-1 72 -34 112t-92 40q-56 0 -88 -38.5zM217 625
l99 159h107v-10l-132 -159h-74v10z" />
    <glyph glyph-name="ecircumflex" unicode="&#xea;" horiz-adv-x="541" 
d="M493 241h-347q12 -164 156 -164q72 0 136 38l35 -75q-34 -25 -81 -38.5t-98 -13.5q-117 0 -181.5 74t-64.5 207q0 134 60 208.5t168 74.5q105 0 163 -68.5t58 -191.5q0 -31 -4 -51zM186 427.5q-32 -38.5 -39 -113.5h253q-1 72 -34 112t-92 40q-56 0 -88 -38.5zM425 625
v-10h-70l-81 103l-80 -103h-67v10l102 159h94z" />
    <glyph glyph-name="edieresis" unicode="&#xeb;" horiz-adv-x="541" 
d="M138.5 639q-15.5 16 -15.5 43q0 28 15.5 44t43.5 16q27 0 42.5 -16t15.5 -43q0 -29 -15 -44.5t-43 -15.5t-43.5 16zM327.5 639q-15.5 16 -15.5 43q0 28 15.5 44t43.5 16q27 0 42.5 -16t15.5 -43q0 -29 -15 -44.5t-43 -15.5t-43.5 16zM493 241h-347q12 -164 156 -164
q72 0 136 38l35 -75q-34 -25 -81 -38.5t-98 -13.5q-117 0 -181.5 74t-64.5 207q0 134 60 208.5t168 74.5q105 0 163 -68.5t58 -191.5q0 -31 -4 -51zM186 427.5q-32 -38.5 -39 -113.5h253q-1 72 -34 112t-92 40q-56 0 -88 -38.5z" />
    <glyph glyph-name="igrave" unicode="&#xec;" horiz-adv-x="272" 
d="M87 539h97v-539h-97v539zM1 774v10h106l92 -159v-10h-74z" />
    <glyph glyph-name="iacute" unicode="&#xed;" horiz-adv-x="272" 
d="M87 539h97v-539h-97v539zM77 625l99 159h107v-10l-132 -159h-74v10z" />
    <glyph glyph-name="icircumflex" unicode="&#xee;" horiz-adv-x="272" 
d="M87 539h97v-539h-97v539zM285 625v-10h-70l-81 103l-80 -103h-67v10l102 159h94z" />
    <glyph glyph-name="idieresis" unicode="&#xef;" horiz-adv-x="272" 
d="M6.5 639q-15.5 16 -15.5 43q0 28 15.5 44t42.5 16t42.5 -16t15.5 -43q0 -29 -15 -44.5t-43 -15.5q-27 0 -42.5 16zM179.5 639q-15.5 16 -15.5 43q0 28 15.5 44t42.5 16t42.5 -16t15.5 -43q0 -29 -15 -44.5t-43 -15.5q-27 0 -42.5 16zM87 539h97v-539h-97v539z" />
    <glyph glyph-name="eth" unicode="&#xf0;" horiz-adv-x="558" 
d="M468.5 516.5q39.5 -95.5 39.5 -226.5q0 -150 -58.5 -226.5t-172.5 -76.5q-112 0 -172 69.5t-60 203.5q0 131 57 200.5t162 69.5q87 0 132 -65q-35 105 -121 172l-120 -74l-32 54l100 55q-42 24 -81 37l-28 10l24 66l28 -10q79 -30 127 -60l102 63l32 -54l-81 -46
q83 -66 122.5 -161.5zM375.5 122q33.5 48 33.5 142q0 86 -35 134.5t-97 48.5q-65 0 -98.5 -47.5t-33.5 -139.5t33.5 -139t98.5 -47t98.5 48z" />
    <glyph glyph-name="ntilde" unicode="&#xf1;" horiz-adv-x="583" 
d="M459.5 506.5q43.5 -45.5 43.5 -127.5v-379h-97v368q0 92 -100 92q-35 0 -64.5 -11.5t-59.5 -35.5v-413h-97v539h89v-62q66 75 164 75q78 0 121.5 -45.5zM319.5 628q-19.5 10 -44.5 28q-18 13 -29 19t-23 6q-34 0 -41 -61h-59q2 63 28.5 99t73.5 36q26 0 45.5 -10
t44.5 -28q18 -13 29 -19t23 -6q34 0 41 61h59q-2 -63 -28.5 -99t-73.5 -36q-26 0 -45.5 10z" />
    <glyph glyph-name="ograve" unicode="&#xf2;" horiz-adv-x="558" 
d="M109 58.5q-59 71.5 -59 210.5t59.5 211t170.5 72q110 0 169 -72t59 -211q0 -138 -59.5 -210t-169.5 -72q-111 0 -170 71.5zM375.5 123q32.5 49 32.5 146t-32.5 146.5t-95.5 49.5q-64 0 -97 -49.5t-33 -146.5t32.5 -146t96.5 -49t96.5 49zM145 774v10h106l92 -159v-10h-74
z" />
    <glyph glyph-name="oacute" unicode="&#xf3;" horiz-adv-x="558" 
d="M109 58.5q-59 71.5 -59 210.5t59.5 211t170.5 72q110 0 169 -72t59 -211q0 -138 -59.5 -210t-169.5 -72q-111 0 -170 71.5zM375.5 123q32.5 49 32.5 146t-32.5 146.5t-95.5 49.5q-64 0 -97 -49.5t-33 -146.5t32.5 -146t96.5 -49t96.5 49zM221 625l99 159h107v-10
l-132 -159h-74v10z" />
    <glyph glyph-name="ocircumflex" unicode="&#xf4;" horiz-adv-x="558" 
d="M109 58.5q-59 71.5 -59 210.5t59.5 211t170.5 72q110 0 169 -72t59 -211q0 -138 -59.5 -210t-169.5 -72q-111 0 -170 71.5zM375.5 123q32.5 49 32.5 146t-32.5 146.5t-95.5 49.5q-64 0 -97 -49.5t-33 -146.5t32.5 -146t96.5 -49t96.5 49zM429 625v-10h-70l-81 103
l-80 -103h-67v10l102 159h94z" />
    <glyph glyph-name="otilde" unicode="&#xf5;" horiz-adv-x="558" 
d="M109 58.5q-59 71.5 -59 210.5t59.5 211t170.5 72q110 0 169 -72t59 -211q0 -138 -59.5 -210t-169.5 -72q-111 0 -170 71.5zM375.5 123q32.5 49 32.5 146t-32.5 146.5t-95.5 49.5q-64 0 -97 -49.5t-33 -146.5t32.5 -146t96.5 -49t96.5 49zM304.5 628q-19.5 10 -44.5 28
q-18 13 -29 19t-23 6q-34 0 -41 -61h-59q2 63 28.5 99t73.5 36q26 0 45.5 -10t44.5 -28q18 -13 29 -19t23 -6q34 0 41 61h59q-2 -63 -28.5 -99t-73.5 -36q-26 0 -45.5 10z" />
    <glyph glyph-name="odieresis" unicode="&#xf6;" horiz-adv-x="558" 
d="M142.5 639q-15.5 16 -15.5 43q0 28 15.5 44t43.5 16q27 0 42.5 -16t15.5 -43q0 -29 -15 -44.5t-43 -15.5t-43.5 16zM331.5 639q-15.5 16 -15.5 43q0 28 15.5 44t43.5 16q27 0 42.5 -16t15.5 -43q0 -29 -15 -44.5t-43 -15.5t-43.5 16zM109 58.5q-59 71.5 -59 210.5
t59.5 211t170.5 72q110 0 169 -72t59 -211q0 -138 -59.5 -210t-169.5 -72q-111 0 -170 71.5zM375.5 123q32.5 49 32.5 146t-32.5 146.5t-95.5 49.5q-64 0 -97 -49.5t-33 -146.5t32.5 -146t96.5 -49t96.5 49z" />
    <glyph glyph-name="divide" unicode="&#xf7;" horiz-adv-x="574" 
d="M243 509q-17 17 -17 45t17 45t45 17q27 0 44 -17t17 -45t-17 -45t-44 -17q-28 0 -45 17zM65 412h444v-87h-444v87zM243 137q-17 17 -17 45t17 45t45 17q27 0 44 -17t17 -45t-17 -45t-44 -17q-28 0 -45 17z" />
    <glyph glyph-name="oslash" unicode="&#xf8;" horiz-adv-x="558" 
d="M538 539l-71 -87q41 -70 41 -183q0 -138 -59.5 -210t-169.5 -72q-88 0 -145 48l-34 -45h-80v10l72 87q-42 69 -42 182q0 139 59.5 211t170.5 72q87 0 144 -49l34 46h80v-10zM180 418q-34 -50 -34 -149q0 -57 11 -101l213 266q-33 34 -90 34q-66 0 -100 -50zM378.5 120.5
q33.5 50.5 33.5 148.5q0 58 -11 102l-212 -266q31 -35 90 -35q66 0 99.5 50.5z" />
    <glyph glyph-name="ugrave" unicode="&#xf9;" horiz-adv-x="575" 
d="M490 539v-539h-89v69q-59 -82 -161 -82q-77 0 -119.5 45.5t-42.5 127.5v379h97v-368q0 -92 97 -92q36 0 65 13t56 42v405h97zM150 774v10h106l92 -159v-10h-74z" />
    <glyph glyph-name="uacute" unicode="&#xfa;" horiz-adv-x="575" 
d="M490 539v-539h-89v69q-59 -82 -161 -82q-77 0 -119.5 45.5t-42.5 127.5v379h97v-368q0 -92 97 -92q36 0 65 13t56 42v405h97zM226 625l99 159h107v-10l-132 -159h-74v10z" />
    <glyph glyph-name="ucircumflex" unicode="&#xfb;" horiz-adv-x="575" 
d="M490 539v-539h-89v69q-59 -82 -161 -82q-77 0 -119.5 45.5t-42.5 127.5v379h97v-368q0 -92 97 -92q36 0 65 13t56 42v405h97zM434 625v-10h-70l-81 103l-80 -103h-67v10l102 159h94z" />
    <glyph glyph-name="udieresis" unicode="&#xfc;" horiz-adv-x="575" 
d="M147.5 639q-15.5 16 -15.5 43q0 28 15.5 44t43.5 16q27 0 42.5 -16t15.5 -43q0 -29 -15 -44.5t-43 -15.5t-43.5 16zM336.5 639q-15.5 16 -15.5 43q0 28 15.5 44t43.5 16q27 0 42.5 -16t15.5 -43q0 -29 -15 -44.5t-43 -15.5t-43.5 16zM490 539v-539h-89v69
q-59 -82 -161 -82q-77 0 -119.5 45.5t-42.5 127.5v379h97v-368q0 -92 97 -92q36 0 65 13t56 42v405h97z" />
    <glyph glyph-name="yacute" unicode="&#xfd;" horiz-adv-x="518" 
d="M493 539l-180 -532q-27 -81 -89 -136.5t-162 -89.5l-34 83q71 25 114 56.5t68 76.5l-185 542h102l133 -431l133 431h100zM202 625l99 159h107v-10l-132 -159h-74v10z" />
    <glyph glyph-name="thorn" unicode="&#xfe;" horiz-adv-x="577" 
d="M474.5 477q52.5 -75 52.5 -210q0 -132 -54.5 -206t-152.5 -74q-42 0 -77.5 15.5t-60.5 44.5v-254h-97v270v438v269h97v-291q55 73 145 73q95 0 147.5 -75zM427 265q0 195 -128 195q-64 0 -117 -57v-273q23 -26 55 -40.5t67 -14.5q123 0 123 190z" />
    <glyph glyph-name="ydieresis" unicode="&#xff;" horiz-adv-x="518" 
d="M123.5 639q-15.5 16 -15.5 43q0 28 15.5 44t43.5 16q27 0 42.5 -16t15.5 -43q0 -29 -15 -44.5t-43 -15.5t-43.5 16zM312.5 639q-15.5 16 -15.5 43q0 28 15.5 44t43.5 16q27 0 42.5 -16t15.5 -43q0 -29 -15 -44.5t-43 -15.5t-43.5 16zM493 539l-180 -532
q-27 -81 -89 -136.5t-162 -89.5l-34 83q71 25 114 56.5t68 76.5l-185 542h102l133 -431l133 431h100z" />
    <glyph glyph-name="Amacron" unicode="&#x100;" horiz-adv-x="668" 
d="M485 809h-302v71h302v-71zM477 182h-288l-59 -182h-105l254 724h110l253 -724h-106zM448 269l-116 355l-115 -355h231z" />
    <glyph glyph-name="amacron" unicode="&#x101;" horiz-adv-x="531" 
d="M399.5 507.5q53.5 -44.5 53.5 -128.5v-379h-88v71q-52 -82 -161 -82q-79 0 -122.5 42t-43.5 119q0 96 77 141.5t242 46.5v31q0 46 -30 70t-88 24q-66 0 -126 -28l-25 78q79 39 166 39q92 0 145.5 -44.5zM357 134v133q-117 -2 -171 -28t-54 -82q0 -41 24 -62t71 -21
q75 0 130 60zM103 710h302v-71h-302v71z" />
    <glyph glyph-name="Abreve" unicode="&#x102;" horiz-adv-x="668" 
d="M227 823.5q-39 40.5 -42 114.5h62q12 -79 88 -79q77 0 89 79h59q-3 -74 -42 -114.5t-107 -40.5t-107 40.5zM477 182h-288l-59 -182h-105l254 724h110l253 -724h-106zM448 269l-116 355l-115 -355h231z" />
    <glyph glyph-name="abreve" unicode="&#x103;" horiz-adv-x="531" 
d="M399.5 507.5q53.5 -44.5 53.5 -128.5v-379h-88v71q-52 -82 -161 -82q-79 0 -122.5 42t-43.5 119q0 96 77 141.5t242 46.5v31q0 46 -30 70t-88 24q-66 0 -126 -28l-25 78q79 39 166 39q92 0 145.5 -44.5zM357 134v133q-117 -2 -171 -28t-54 -82q0 -41 24 -62t71 -21
q75 0 130 60zM147 653.5q-39 40.5 -42 114.5h62q12 -79 88 -79q77 0 89 79h59q-3 -74 -42 -114.5t-107 -40.5t-107 40.5z" />
    <glyph glyph-name="Aogonek" unicode="&#x104;" horiz-adv-x="668" 
d="M690 -192q-22 -14 -50 -22t-57 -8q-52 0 -81.5 25t-29.5 69q0 38 22.5 71.5t62.5 56.5h-21l-59 182h-288l-59 -182h-105l254 724h110l253 -724q-87 -50 -87 -110q0 -42 48 -42q30 0 62 16zM448 269l-116 355l-115 -355h231z" />
    <glyph glyph-name="aogonek" unicode="&#x105;" horiz-adv-x="531" 
d="M501 -192q-22 -14 -50 -22t-57 -8q-52 0 -81.5 25t-29.5 69q0 38 22.5 71.5t62.5 56.5h-2v74q-31 -44 -70.5 -64.5t-91.5 -20.5q-79 0 -122.5 42t-43.5 119q0 96 77 141.5t242 46.5v31q0 46 -30 70t-88 24q-66 0 -126 -28l-25 78q79 39 166 39q92 0 145.5 -44.5
t53.5 -128.5v-379q-87 -50 -87 -110q0 -42 48 -42q30 0 62 16zM357 134v133q-116 -1 -170.5 -27.5t-54.5 -82.5q0 -41 24 -62t71 -21q75 0 130 60z" />
    <glyph glyph-name="Cacute" unicode="&#x106;" horiz-adv-x="601" 
d="M280 793l150 133h116v-12l-182 -133h-84v12zM133.5 83q-85.5 95 -85.5 265q0 117 39.5 205t111.5 136t169 48q51 0 101 -13.5t90 -37.5l-36 -78q-80 39 -157 39q-102 0 -158.5 -76.5t-56.5 -214.5q0 -136 57.5 -206t170.5 -70q91 0 150 35l36 -77q-32 -24 -83 -37
t-109 -13q-154 0 -239.5 95z" />
    <glyph glyph-name="cacute" unicode="&#x107;" horiz-adv-x="481" 
d="M111 61.5q-65 73.5 -65 205.5q0 85 30 149.5t85 100t127 35.5q41 0 82.5 -12.5t74.5 -33.5l-36 -77q-67 34 -123 34q-66 0 -103 -50t-37 -139q0 -97 38.5 -146.5t114.5 -49.5q61 0 117 32l35 -76q-30 -22 -70.5 -34t-87.5 -12q-117 0 -182 73.5zM206 625l99 159h107v-10
l-132 -159h-74v10z" />
    <glyph glyph-name="Ccircumflex" unicode="&#x108;" horiz-adv-x="601" 
d="M257 781h-73v12l117 133h100l117 -133v-12h-76l-93 87zM565 38q-32 -24 -83 -37t-109 -13q-154 0 -239.5 95t-85.5 265q0 117 39.5 205t111.5 136t169 48q51 0 101 -13.5t90 -37.5l-36 -78q-80 39 -157 39q-102 0 -158.5 -76.5t-56.5 -214.5q0 -136 57.5 -206t170.5 -70
q91 0 150 35z" />
    <glyph glyph-name="ccircumflex" unicode="&#x109;" horiz-adv-x="481" 
d="M111 61.5q-65 73.5 -65 205.5q0 85 30 149.5t85 100t127 35.5q41 0 82.5 -12.5t74.5 -33.5l-36 -77q-67 34 -123 34q-66 0 -103 -50t-37 -139q0 -97 38.5 -146.5t114.5 -49.5q61 0 117 32l35 -76q-30 -22 -70.5 -34t-87.5 -12q-117 0 -182 73.5zM414 625v-10h-70l-81 103
l-80 -103h-67v10l102 159h94z" />
    <glyph glyph-name="Cdotaccent" unicode="&#x10a;" horiz-adv-x="601" 
d="M304.5 807.5q-16.5 16.5 -16.5 45.5q0 30 16.5 46.5t46.5 16.5t46.5 -16.5t16.5 -45.5q0 -30 -16.5 -46.5t-46.5 -16.5t-46.5 16.5zM133.5 83q-85.5 95 -85.5 265q0 117 39.5 205t111.5 136t169 48q51 0 101 -13.5t90 -37.5l-36 -78q-80 39 -157 39q-102 0 -158.5 -76.5
t-56.5 -214.5q0 -136 57.5 -206t170.5 -70q91 0 150 35l36 -77q-32 -24 -83 -37t-109 -13q-154 0 -239.5 95z" />
    <glyph glyph-name="cdotaccent" unicode="&#x10b;" horiz-adv-x="481" 
d="M111 61.5q-65 73.5 -65 205.5q0 85 30 149.5t85 100t127 35.5q41 0 82.5 -12.5t74.5 -33.5l-36 -77q-67 34 -123 34q-66 0 -103 -50t-37 -139q0 -97 38.5 -146.5t114.5 -49.5q61 0 117 32l35 -76q-30 -22 -70.5 -34t-87.5 -12q-117 0 -182 73.5zM218.5 641.5
q-16.5 16.5 -16.5 45.5q0 30 16.5 46.5t46.5 16.5t46.5 -16.5t16.5 -45.5q0 -30 -16.5 -46.5t-46.5 -16.5t-46.5 16.5z" />
    <glyph glyph-name="Ccaron" unicode="&#x10c;" horiz-adv-x="601" 
d="M301 781l-117 133v12h76l93 -87l92 87h73v-12l-117 -133h-100zM565 38q-32 -24 -83 -37t-109 -13q-154 0 -239.5 95t-85.5 265q0 117 39.5 205t111.5 136t169 48q51 0 101 -13.5t90 -37.5l-36 -78q-80 39 -157 39q-102 0 -158.5 -76.5t-56.5 -214.5q0 -136 57.5 -206
t170.5 -70q91 0 150 35z" />
    <glyph glyph-name="ccaron" unicode="&#x10d;" horiz-adv-x="481" 
d="M111 61.5q-65 73.5 -65 205.5q0 85 30 149.5t85 100t127 35.5q41 0 82.5 -12.5t74.5 -33.5l-36 -77q-67 34 -123 34q-66 0 -103 -50t-37 -139q0 -97 38.5 -146.5t114.5 -49.5q61 0 117 32l35 -76q-30 -22 -70.5 -34t-87.5 -12q-117 0 -182 73.5zM414 784v-10l-102 -159
h-94l-102 159v10h70l80 -103l81 103h67z" />
    <glyph glyph-name="Dcaron" unicode="&#x10e;" horiz-adv-x="691" 
d="M289 781l-117 133v12h76l93 -87l92 87h73v-12l-117 -133h-100zM548 632.5q85 -91.5 85 -270.5t-86 -270.5t-248 -91.5h-209v724h212q161 0 246 -91.5zM472 158q58 69 58 204q0 136 -58.5 204.5t-173.5 68.5h-109v-546h111q114 0 172 69z" />
    <glyph glyph-name="dcaron" unicode="&#x10f;" horiz-adv-x="577" 
d="M394 770h97v-770h-89v38v34q-53 -85 -153 -85q-94 0 -146.5 75t-52.5 209q0 133 54.5 207t152.5 74q42 0 77.5 -16t59.5 -45v279zM646 770v-10l-30 -208h-58v218h88zM339.5 92.5q28.5 13.5 54.5 43.5v272q-23 27 -55 41.5t-67 14.5q-61 0 -91.5 -48t-30.5 -143
q0 -194 128 -194q33 0 61.5 13.5z" />
    <glyph glyph-name="Dcroat" unicode="&#x110;" horiz-adv-x="690" 
d="M548 632.5q85 -91.5 85 -270.5t-86 -270.5t-248 -91.5h-209v326h-66v81h66v317h212q161 0 246 -91.5zM472 158q58 69 58 204q0 136 -58.5 204.5t-173.5 68.5h-109v-228h176v-81h-176v-237h111q114 0 172 69z" />
    <glyph glyph-name="dcroat" unicode="&#x111;" horiz-adv-x="579" 
d="M559 616h-66v-616h-89v72q-53 -85 -153 -85q-95 0 -148 72.5t-53 203.5q0 128 55 199.5t154 71.5q42 0 77 -15.5t60 -44.5v142h-215v66h215v88h97v-88h66v-66zM341.5 92.5q28.5 13.5 54.5 43.5v255q-22 26 -54.5 41t-67.5 15q-61 0 -92.5 -46t-31.5 -136q0 -92 33 -139
t97 -47q33 0 61.5 13.5z" />
    <glyph glyph-name="Emacron" unicode="&#x112;" horiz-adv-x="576" 
d="M461 809h-302v71h302v-71zM536 89v-89h-446v724h433v-89h-334v-220h249v-90h-249v-236h347z" />
    <glyph glyph-name="emacron" unicode="&#x113;" horiz-adv-x="541" 
d="M493 241h-347q12 -164 156 -164q72 0 136 38l35 -75q-34 -25 -81 -38.5t-98 -13.5q-117 0 -181.5 74t-64.5 207q0 134 60 208.5t168 74.5q105 0 163 -68.5t58 -191.5q0 -31 -4 -51zM186 427.5q-32 -38.5 -39 -113.5h253q-1 72 -34 112t-92 40q-56 0 -88 -38.5zM125 710
h302v-71h-302v71z" />
    <glyph glyph-name="Ebreve" unicode="&#x114;" horiz-adv-x="576" 
d="M203 823.5q-39 40.5 -42 114.5h62q12 -79 88 -79q77 0 89 79h59q-3 -74 -42 -114.5t-107 -40.5t-107 40.5zM536 89v-89h-446v724h433v-89h-334v-220h249v-90h-249v-236h347z" />
    <glyph glyph-name="ebreve" unicode="&#x115;" horiz-adv-x="541" 
d="M493 241h-347q12 -164 156 -164q72 0 136 38l35 -75q-34 -25 -81 -38.5t-98 -13.5q-117 0 -181.5 74t-64.5 207q0 134 60 208.5t168 74.5q105 0 163 -68.5t58 -191.5q0 -31 -4 -51zM186 427.5q-32 -38.5 -39 -113.5h253q-1 72 -34 112t-92 40q-56 0 -88 -38.5zM169 653.5
q-39 40.5 -42 114.5h62q12 -79 88 -79q77 0 89 79h59q-3 -74 -42 -114.5t-107 -40.5t-107 40.5z" />
    <glyph glyph-name="Edotaccent" unicode="&#x116;" horiz-adv-x="576" 
d="M263.5 807.5q-16.5 16.5 -16.5 45.5q0 30 16.5 46.5t46.5 16.5t46.5 -16.5t16.5 -45.5q0 -30 -16.5 -46.5t-46.5 -16.5t-46.5 16.5zM536 89v-89h-446v724h433v-89h-334v-220h249v-90h-249v-236h347z" />
    <glyph glyph-name="edotaccent" unicode="&#x117;" horiz-adv-x="541" 
d="M493 241h-347q12 -164 156 -164q72 0 136 38l35 -75q-34 -25 -81 -38.5t-98 -13.5q-117 0 -181.5 74t-64.5 207q0 134 60 208.5t168 74.5q105 0 163 -68.5t58 -191.5q0 -31 -4 -51zM186 427.5q-32 -38.5 -39 -113.5h253q-1 72 -34 112t-92 40q-56 0 -88 -38.5z
M229.5 641.5q-16.5 16.5 -16.5 45.5q0 30 16.5 46.5t46.5 16.5t46.5 -16.5t16.5 -45.5q0 -30 -16.5 -46.5t-46.5 -16.5t-46.5 16.5z" />
    <glyph glyph-name="Eogonek" unicode="&#x118;" horiz-adv-x="576" 
d="M584 -192q-22 -14 -50 -22t-57 -8q-52 0 -81.5 25t-29.5 69q0 38 22.5 71.5t62.5 56.5h-361v724h433v-89h-334v-220h249v-90h-249v-236h347v-89q-87 -50 -87 -110q0 -42 48 -42q30 0 62 16z" />
    <glyph glyph-name="eogonek" unicode="&#x119;" horiz-adv-x="541" 
d="M493 241h-347q12 -164 156 -164q72 0 136 38l35 -75q-4 -2 -14.5 -8.5t-21.5 -11.5q-46 -26 -73.5 -61t-27.5 -69q0 -42 47 -42q31 0 63 16l25 -56q-46 -30 -108 -30q-52 0 -81 25t-29 69q0 33 16.5 63t46.5 54q-8 -1 -22 -1q-117 0 -181.5 73.5t-64.5 207.5t60 208.5
t168 74.5q105 0 163 -68.5t58 -191.5q0 -31 -4 -51zM186 427.5q-32 -38.5 -39 -113.5h253q-1 72 -34 112t-92 40q-56 0 -88 -38.5z" />
    <glyph glyph-name="Ecaron" unicode="&#x11a;" horiz-adv-x="576" 
d="M260 781l-117 133v12h76l93 -87l92 87h73v-12l-117 -133h-100zM536 89v-89h-446v724h433v-89h-334v-220h249v-90h-249v-236h347z" />
    <glyph glyph-name="ecaron" unicode="&#x11b;" horiz-adv-x="541" 
d="M493 241h-347q12 -164 156 -164q72 0 136 38l35 -75q-34 -25 -81 -38.5t-98 -13.5q-117 0 -181.5 74t-64.5 207q0 134 60 208.5t168 74.5q105 0 163 -68.5t58 -191.5q0 -31 -4 -51zM186 427.5q-32 -38.5 -39 -113.5h253q-1 72 -34 112t-92 40q-56 0 -88 -38.5zM425 784
v-10l-102 -159h-94l-102 159v10h70l80 -103l81 103h67z" />
    <glyph glyph-name="Gcircumflex" unicode="&#x11c;" horiz-adv-x="668" 
d="M266 781h-73v12l117 133h100l117 -133v-12h-76l-93 87zM598 392v-352q-39 -25 -94 -39t-116 -14q-157 0 -243.5 98.5t-86.5 276.5t86.5 276.5t243.5 98.5q56 0 108 -13.5t89 -36.5l-30 -81q-90 42 -169 42q-112 0 -168.5 -72t-56.5 -214t57 -214t170 -72q60 0 111 16v212
h-128v88h227z" />
    <glyph glyph-name="gcircumflex" unicode="&#x11d;" horiz-adv-x="579" 
d="M494 539v-533q0 -107 -63 -166.5t-176 -59.5q-43 0 -85 9t-74 25l29 82q60 -29 124 -29q148 0 148 139v84q-53 -73 -146 -73q-95 0 -148 71t-53 198q0 126 55 196t154 70q46 0 83.5 -18.5t62.5 -53.5v59h89zM342.5 122.5q28.5 13.5 54.5 43.5v242q-24 27 -56 41.5
t-67 14.5q-124 0 -124 -176q0 -89 33 -134t97 -45q34 0 62.5 13.5zM435 625v-10h-70l-81 103l-80 -103h-67v10l102 159h94z" />
    <glyph glyph-name="Gbreve" unicode="&#x11e;" horiz-adv-x="668" 
d="M253 823.5q-39 40.5 -42 114.5h62q12 -79 88 -79q77 0 89 79h59q-3 -74 -42 -114.5t-107 -40.5t-107 40.5zM598 392v-352q-39 -25 -94 -39t-116 -14q-157 0 -243.5 98.5t-86.5 276.5t86.5 276.5t243.5 98.5q56 0 108 -13.5t89 -36.5l-30 -81q-90 42 -169 42
q-112 0 -168.5 -72t-56.5 -214t57 -214t170 -72q60 0 111 16v212h-128v88h227z" />
    <glyph glyph-name="gbreve" unicode="&#x11f;" horiz-adv-x="579" 
d="M494 539v-533q0 -107 -63 -166.5t-176 -59.5q-43 0 -85 9t-74 25l29 82q60 -29 124 -29q148 0 148 139v84q-53 -73 -146 -73q-95 0 -148 71t-53 198q0 126 55 196t154 70q46 0 83.5 -18.5t62.5 -53.5v59h89zM342.5 122.5q28.5 13.5 54.5 43.5v242q-24 27 -56 41.5
t-67 14.5q-124 0 -124 -176q0 -89 33 -134t97 -45q34 0 62.5 13.5zM179 653.5q-39 40.5 -42 114.5h62q12 -79 88 -79q77 0 89 79h59q-3 -74 -42 -114.5t-107 -40.5t-107 40.5z" />
    <glyph glyph-name="Gdotaccent" unicode="&#x120;" horiz-adv-x="668" 
d="M313.5 807.5q-16.5 16.5 -16.5 45.5q0 30 16.5 46.5t46.5 16.5t46.5 -16.5t16.5 -45.5q0 -30 -16.5 -46.5t-46.5 -16.5t-46.5 16.5zM598 392v-352q-39 -25 -94 -39t-116 -14q-157 0 -243.5 98.5t-86.5 276.5t86.5 276.5t243.5 98.5q56 0 108 -13.5t89 -36.5l-30 -81
q-90 42 -169 42q-112 0 -168.5 -72t-56.5 -214t57 -214t170 -72q60 0 111 16v212h-128v88h227z" />
    <glyph glyph-name="gdotaccent" unicode="&#x121;" horiz-adv-x="579" 
d="M494 539v-533q0 -107 -63 -166.5t-176 -59.5q-43 0 -85 9t-74 25l29 82q60 -29 124 -29q148 0 148 139v84q-53 -73 -146 -73q-95 0 -148 71t-53 198q0 126 55 196t154 70q46 0 83.5 -18.5t62.5 -53.5v59h89zM342.5 122.5q28.5 13.5 54.5 43.5v242q-24 27 -56 41.5
t-67 14.5q-124 0 -124 -176q0 -89 33 -134t97 -45q34 0 62.5 13.5zM239.5 641.5q-16.5 16.5 -16.5 45.5q0 30 16.5 46.5t46.5 16.5t46.5 -16.5t16.5 -45.5q0 -30 -16.5 -46.5t-46.5 -16.5t-46.5 16.5z" />
    <glyph glyph-name="Gcommaaccent" unicode="&#x122;" horiz-adv-x="668" 
d="M598 392v-352q-39 -25 -94 -39t-116 -14q-157 0 -243.5 98.5t-86.5 276.5t86.5 276.5t243.5 98.5q56 0 108 -13.5t89 -36.5l-30 -81q-90 42 -169 42q-112 0 -168.5 -72t-56.5 -214t57 -214t170 -72q60 0 111 16v212h-128v88h227zM270 -238q26 28 36 55t10 67q0 7 -3 40
h92q3 -17 3 -39q0 -46 -24 -84t-78 -79z" />
    <glyph glyph-name="gcommaaccent" unicode="&#x123;" horiz-adv-x="579" 
d="M494 539v-533q0 -107 -63 -166.5t-176 -59.5q-43 0 -85 9t-74 25l29 82q60 -29 124 -29q148 0 148 139v84q-53 -73 -146 -73q-95 0 -148 71t-53 198q0 126 55 196t154 70q46 0 83.5 -18.5t62.5 -53.5v59h89zM342.5 122.5q28.5 13.5 54.5 43.5v242q-24 27 -56 41.5
t-67 14.5q-124 0 -124 -176q0 -89 33 -134t97 -45q34 0 62.5 13.5zM373 774q-26 -29 -36 -55.5t-10 -66.5q0 -25 3 -40h-93q-2 20 -2 39q0 46 24 84t77 78z" />
    <glyph glyph-name="Hcircumflex" unicode="&#x124;" horiz-adv-x="702" 
d="M257 781h-73v12l117 133h100l117 -133v-12h-76l-93 87zM611 724v-724h-99v323h-323v-323h-99v724h99v-312h323v312h99z" />
    <glyph glyph-name="hcircumflex" unicode="&#x125;" horiz-adv-x="585" 
d="M132 914l-92 -87h-73v12l117 133h100l117 -133v-12h-76zM461.5 506.5q43.5 -45.5 43.5 -127.5v-379h-97v368q0 92 -101 92q-35 0 -65.5 -11.5t-59.5 -35.5v-413h-97v770h97v-284q66 66 157 66q79 0 122.5 -45.5z" />
    <glyph glyph-name="Hbar" unicode="&#x126;" horiz-adv-x="702" 
d="M678 526h-67v-526h-99v323h-323v-323h-99v526h-66v78h66v120h99v-120h323v120h99v-120h67v-78zM512 526h-323v-114h323v114z" />
    <glyph glyph-name="hbar" unicode="&#x127;" horiz-adv-x="587" 
d="M463 488.5q44 -45.5 44 -127.5v-361h-97v350q0 92 -102 92q-36 0 -66.5 -11.5t-59.5 -35.5v-395h-97v615h-65v68h65v87h97v-87h218v-68h-218v-147q66 66 158 66q79 0 123 -45.5z" />
    <glyph glyph-name="Itilde" unicode="&#x128;" horiz-adv-x="283" 
d="M158 798q-16 10 -34 28q-11 13 -20 19.5t-21 6.5q-34 0 -40 -62h-57q0 64 26 99.5t72 35.5q26 0 42 -10t34 -28q11 -13 20 -19.5t21 -6.5q34 0 40 62h57q0 -64 -26 -99.5t-72 -35.5q-26 0 -42 10zM92 724h99v-724h-99v724z" />
    <glyph glyph-name="itilde" unicode="&#x129;" horiz-adv-x="272" 
d="M152 628q-16 10 -34 28q-11 13 -20 19.5t-21 6.5q-34 0 -40 -62h-57q0 64 26 99.5t72 35.5q26 0 42 -10t34 -28q11 -13 20 -19.5t21 -6.5q34 0 40 62h57q0 -64 -26 -99.5t-72 -35.5q-26 0 -42 10zM87 539h97v-539h-97v539z" />
    <glyph glyph-name="Imacron" unicode="&#x12a;" horiz-adv-x="283" 
d="M-9 880h302v-71h-302v71zM92 724h99v-724h-99v724z" />
    <glyph glyph-name="imacron" unicode="&#x12b;" horiz-adv-x="272" 
d="M17 710h238v-71h-238v71zM87 539h97v-539h-97v539z" />
    <glyph glyph-name="Ibreve" unicode="&#x12c;" horiz-adv-x="283" 
d="M35 823.5q-39 40.5 -42 114.5h62q12 -79 88 -79q77 0 89 79h59q-3 -74 -42 -114.5t-107 -40.5t-107 40.5zM92 724h99v-724h-99v724z" />
    <glyph glyph-name="ibreve" unicode="&#x12d;" horiz-adv-x="272" 
d="M87 539h97v-539h-97v539zM29 653.5q-39 40.5 -42 114.5h62q12 -79 88 -79q77 0 89 79h59q-3 -74 -42 -114.5t-107 -40.5t-107 40.5z" />
    <glyph glyph-name="Iogonek" unicode="&#x12e;" horiz-adv-x="283" 
d="M257 -192q-21 -14 -49.5 -22t-57.5 -8q-52 0 -81 25t-29 69q0 37 18.5 70t52.5 58h-19v724h99v-724q-68 -54 -68 -110q0 -42 47 -42q31 0 63 16z" />
    <glyph glyph-name="iogonek" unicode="&#x12f;" horiz-adv-x="272" 
d="M89.5 641.5q-16.5 16.5 -16.5 45.5q0 30 16.5 46.5t46.5 16.5t46.5 -16.5t16.5 -45.5q0 -30 -16.5 -46.5t-46.5 -16.5t-46.5 16.5zM250 -192q-21 -14 -49 -22t-58 -8q-52 0 -81 25t-29 69q0 37 18.5 70t53.5 58h-18v539h97v-539q-68 -54 -68 -110q0 -42 47 -42
q31 0 63 16z" />
    <glyph glyph-name="Idotaccent" unicode="&#x130;" horiz-adv-x="283" 
d="M95.5 807.5q-16.5 16.5 -16.5 45.5q0 30 16.5 46.5t46.5 16.5t46.5 -16.5t16.5 -45.5q0 -30 -16.5 -46.5t-46.5 -16.5t-46.5 16.5zM92 724h99v-724h-99v724z" />
    <glyph glyph-name="dotlessi" unicode="&#x131;" horiz-adv-x="272" 
d="M87 539h97v-539h-97v539z" />
    <glyph glyph-name="IJ" unicode="&#x132;" horiz-adv-x="661" 
d="M90 724h99v-724h-99v724zM327 -4.5q-36 8.5 -65 23.5l32 83q57 -25 103 -25q92 0 92 110v537h99v-541q0 -93 -49.5 -144.5t-139.5 -51.5q-36 0 -72 8.5z" />
    <glyph glyph-name="ij" unicode="&#x133;" horiz-adv-x="544" 
d="M87 539h97v-539h-97v539zM89.5 641.5q-16.5 16.5 -16.5 45.5q0 30 16.5 46.5t46.5 16.5t46.5 -16.5t16.5 -45.5q0 -30 -16.5 -46.5t-46.5 -16.5t-46.5 16.5zM220 -141q56 20 85.5 41.5t41.5 53t12 83.5v502h97v-504q0 -74 -18 -120t-61.5 -77.5t-123.5 -58.5z
M361.5 641.5q-16.5 16.5 -16.5 45.5q0 30 16.5 46.5t46.5 16.5t46.5 -16.5t16.5 -45.5q0 -30 -16.5 -46.5t-46.5 -16.5t-46.5 16.5z" />
    <glyph glyph-name="Jcircumflex" unicode="&#x134;" horiz-adv-x="460" 
d="M492 793v-12h-76l-93 87l-92 -87h-73v12l117 133h100zM276 724h99v-541q0 -93 -54 -144.5t-151 -51.5q-49 0 -92 13t-72 36l37 78q61 -37 124 -37q109 0 109 110v537z" />
    <glyph glyph-name="jcircumflex" unicode="&#x135;" horiz-adv-x="272" 
d="M-52 -141q56 20 85.5 41.5t41.5 53t12 83.5v502h97v-504q0 -74 -18 -120t-61.5 -77.5t-123.5 -58.5zM285 625v-10h-70l-81 103l-80 -103h-67v10l102 159h94z" />
    <glyph glyph-name="Kcommaaccent" unicode="&#x136;" horiz-adv-x="624" 
d="M278 322l-89 -107v-215h-99v724h99v-382l302 382h119l-268 -325l284 -399h-119zM250 -238q26 28 36 55t10 67q0 7 -3 40h92q3 -17 3 -39q0 -46 -24 -84t-78 -79z" />
    <glyph glyph-name="kcommaaccent" unicode="&#x137;" horiz-adv-x="547" 
d="M252 239l-70 -80v-159h-97v770h97v-490l218 259h115l-199 -227l211 -312h-114zM200 -238q26 28 36 55t10 67q0 7 -3 40h92q3 -17 3 -39q0 -46 -24 -84t-78 -79z" />
    <glyph glyph-name="kgreenlandic" unicode="&#x138;" horiz-adv-x="547" 
d="M252 239l-70 -80v-159h-97v539h97v-259l218 259h115l-199 -227l211 -312h-114z" />
    <glyph glyph-name="Lacute" unicode="&#x139;" horiz-adv-x="529" 
d="M176 781h-84v12l149 133h117v-12zM501 90v-90h-411v724h99v-634h312z" />
    <glyph glyph-name="lacute" unicode="&#x13a;" horiz-adv-x="313" 
d="M61 839l150 133h116v-12l-182 -133h-84v12zM83 121v649h97v-636q0 -28 12.5 -41t40.5 -13q17 0 38 4l8 -82q-35 -8 -70 -8q-126 0 -126 127z" />
    <glyph glyph-name="Lcommaaccent" unicode="&#x13b;" horiz-adv-x="529" 
d="M501 90v-90h-411v724h99v-634h312zM210 -238q26 28 36 55t10 67q0 7 -3 40h92q3 -17 3 -39q0 -46 -24 -84t-78 -79z" />
    <glyph glyph-name="lcommaaccent" unicode="&#x13c;" horiz-adv-x="313" 
d="M83 121v649h97v-636q0 -28 12.5 -41t40.5 -13q17 0 38 4l8 -82q-35 -8 -70 -8q-126 0 -126 127zM86 -238q26 28 36 55t10 67q0 7 -3 40h92q3 -17 3 -39q0 -46 -24 -84t-78 -79z" />
    <glyph glyph-name="Lcaron" unicode="&#x13d;" horiz-adv-x="529" 
d="M364 552h-58v218h88v-10zM501 90v-90h-411v724h99v-634h312z" />
    <glyph glyph-name="lcaron" unicode="&#x13e;" horiz-adv-x="315" 
d="M83 121v649h97v-636q0 -28 12.5 -41t40.5 -13q17 0 38 4l8 -82q-35 -8 -70 -8q-126 0 -126 127zM256 770h88v-10l-30 -208h-58v218z" />
    <glyph glyph-name="Ldot" unicode="&#x13f;" horiz-adv-x="529" 
d="M501 90v-90h-411v724h99v-634h312zM350.5 353.5q-16.5 16.5 -16.5 45.5q0 30 16.5 46.5t46.5 16.5t46.5 -16.5t16.5 -45.5q0 -30 -16.5 -46.5t-46.5 -16.5t-46.5 16.5z" />
    <glyph glyph-name="ldot" unicode="&#x140;" horiz-adv-x="382" 
d="M83 121v649h97v-636q0 -28 12.5 -41t40.5 -13q17 0 38 4l8 -82q-35 -8 -70 -8q-126 0 -126 127zM276.5 347.5q-16.5 16.5 -16.5 45.5q0 30 16.5 46.5t46.5 16.5t46.5 -16.5t16.5 -45.5q0 -30 -16.5 -46.5t-46.5 -16.5t-46.5 16.5z" />
    <glyph glyph-name="Lslash" unicode="&#x141;" horiz-adv-x="533" 
d="M505 90v-90h-411v253l-51 -32h-10v83l61 35v385h99v-329l207 124h10v-83l-217 -125v-221h312z" />
    <glyph glyph-name="lslash" unicode="&#x142;" horiz-adv-x="350" 
d="M204 391v-257q0 -28 12.5 -41t40.5 -13q17 0 38 4l8 -82q-35 -8 -70 -8q-126 0 -126 127v207l-72 -49h-10v81l82 52v358h97v-295l94 64h10v-81z" />
    <glyph glyph-name="Nacute" unicode="&#x143;" horiz-adv-x="724" 
d="M375 781h-84v12l150 133h116v-12zM633 724v-724h-94l-352 556v-556h-97v724h94l352 -555v555h97z" />
    <glyph glyph-name="nacute" unicode="&#x144;" horiz-adv-x="583" 
d="M459.5 506.5q43.5 -45.5 43.5 -127.5v-379h-97v368q0 92 -100 92q-35 0 -64.5 -11.5t-59.5 -35.5v-413h-97v539h89v-62q66 75 164 75q78 0 121.5 -45.5zM236 625l99 159h107v-10l-132 -159h-74v10z" />
    <glyph glyph-name="Ncommaaccent" unicode="&#x145;" horiz-adv-x="724" 
d="M633 724v-724h-94l-352 556v-556h-97v724h94l352 -555v555h97zM272 -238q26 28 36 55t10 67q0 7 -3 40h92q3 -17 3 -39q0 -46 -24 -84t-78 -79z" />
    <glyph glyph-name="ncommaaccent" unicode="&#x146;" horiz-adv-x="583" 
d="M459.5 506.5q43.5 -45.5 43.5 -127.5v-379h-97v368q0 92 -100 92q-35 0 -64.5 -11.5t-59.5 -35.5v-413h-97v539h89v-62q66 75 164 75q78 0 121.5 -45.5zM206 -238q26 28 36 55t10 67q0 7 -3 40h92q3 -17 3 -39q0 -46 -24 -84t-78 -79z" />
    <glyph glyph-name="Ncaron" unicode="&#x147;" horiz-adv-x="724" 
d="M312 781l-117 133v12h76l93 -87l92 87h73v-12l-117 -133h-100zM633 724v-724h-94l-352 556v-556h-97v724h94l352 -555v555h97z" />
    <glyph glyph-name="ncaron" unicode="&#x148;" horiz-adv-x="583" 
d="M459.5 506.5q43.5 -45.5 43.5 -127.5v-379h-97v368q0 92 -100 92q-35 0 -64.5 -11.5t-59.5 -35.5v-413h-97v539h89v-62q66 75 164 75q78 0 121.5 -45.5zM444 784v-10l-102 -159h-94l-102 159v10h70l80 -103l81 103h67z" />
    <glyph glyph-name="napostrophe" unicode="&#x149;" horiz-adv-x="583" 
d="M459.5 506.5q43.5 -45.5 43.5 -127.5v-379h-97v368q0 92 -100 92q-35 0 -64.5 -11.5t-59.5 -35.5v-413h-97v539h89v-62q66 75 164 75q78 0 121.5 -45.5zM-70 574q32 34 45.5 68t13.5 80q0 26 -2 48h90q2 -22 2 -47q0 -53 -27.5 -98t-86.5 -89z" />
    <glyph glyph-name="Eng" unicode="&#x14a;" horiz-adv-x="724" 
d="M633 724v-724v-34q0 -89 -48.5 -137.5t-136.5 -48.5q-42 0 -79 11.5t-64 33.5l36 75q54 -33 105 -33q44 0 67 26t23 77v35l-349 551v-556h-97v724h94l352 -555v555h97z" />
    <glyph glyph-name="eng" unicode="&#x14b;" horiz-adv-x="583" 
d="M459.5 506.5q43.5 -45.5 43.5 -127.5v-379v-54q0 -79 -41 -122.5t-115 -43.5q-70 0 -119 36l32 74q48 -25 82 -25q64 0 64 85v206v212q0 92 -100 92q-35 0 -64.5 -11.5t-59.5 -35.5v-413h-97v539h89v-62q66 75 164 75q78 0 121.5 -45.5z" />
    <glyph glyph-name="Omacron" unicode="&#x14c;" horiz-adv-x="714" 
d="M206 880h302v-71h-302v71zM134.5 82q-76.5 95 -76.5 280t76.5 280t222.5 95q145 0 222 -95t77 -280t-77 -280t-222 -95q-146 0 -222.5 95zM503.5 148q49.5 72 49.5 214t-49.5 214t-146.5 72t-146.5 -72t-49.5 -214t49.5 -214t146.5 -72t146.5 72z" />
    <glyph glyph-name="omacron" unicode="&#x14d;" horiz-adv-x="558" 
d="M109 58.5q-59 71.5 -59 210.5t59.5 211t170.5 72q110 0 169 -72t59 -211q0 -138 -59.5 -210t-169.5 -72q-111 0 -170 71.5zM375.5 123q32.5 49 32.5 146t-32.5 146.5t-95.5 49.5q-64 0 -97 -49.5t-33 -146.5t32.5 -146t96.5 -49t96.5 49zM129 710h302v-71h-302v71z" />
    <glyph glyph-name="Obreve" unicode="&#x14e;" horiz-adv-x="714" 
d="M250 823.5q-39 40.5 -42 114.5h62q12 -79 88 -79q77 0 89 79h59q-3 -74 -42 -114.5t-107 -40.5t-107 40.5zM134.5 82q-76.5 95 -76.5 280t76.5 280t222.5 95q145 0 222 -95t77 -280t-77 -280t-222 -95q-146 0 -222.5 95zM503.5 148q49.5 72 49.5 214t-49.5 214t-146.5 72
t-146.5 -72t-49.5 -214t49.5 -214t146.5 -72t146.5 72z" />
    <glyph glyph-name="obreve" unicode="&#x14f;" horiz-adv-x="558" 
d="M109 58.5q-59 71.5 -59 210.5t59.5 211t170.5 72q110 0 169 -72t59 -211q0 -138 -59.5 -210t-169.5 -72q-111 0 -170 71.5zM375.5 123q32.5 49 32.5 146t-32.5 146.5t-95.5 49.5q-64 0 -97 -49.5t-33 -146.5t32.5 -146t96.5 -49t96.5 49zM173 653.5q-39 40.5 -42 114.5
h62q12 -79 88 -79q77 0 89 79h59q-3 -74 -42 -114.5t-107 -40.5t-107 40.5z" />
    <glyph glyph-name="Ohungarumlaut" unicode="&#x150;" horiz-adv-x="714" 
d="M221 793l98 133h99v-12l-129 -133h-68v12zM382 793l98 133h100v-12l-129 -133h-69v12zM134.5 82q-76.5 95 -76.5 280t76.5 280t222.5 95q145 0 222 -95t77 -280t-77 -280t-222 -95q-146 0 -222.5 95zM503.5 148q49.5 72 49.5 214t-49.5 214t-146.5 72t-146.5 -72
t-49.5 -214t49.5 -214t146.5 -72t146.5 72z" />
    <glyph glyph-name="ohungarumlaut" unicode="&#x151;" horiz-adv-x="558" 
d="M109 58.5q-59 71.5 -59 210.5t59.5 211t170.5 72q110 0 169 -72t59 -211q0 -138 -59.5 -210t-169.5 -72q-111 0 -170 71.5zM375.5 123q32.5 49 32.5 146t-32.5 146.5t-95.5 49.5q-64 0 -97 -49.5t-33 -146.5t32.5 -146t96.5 -49t96.5 49zM163 625l59 159h94v-10l-90 -159
h-63v10zM309 625l60 159h94v-10l-91 -159h-63v10z" />
    <glyph glyph-name="OE" unicode="&#x152;" horiz-adv-x="962" 
d="M922 89v-89h-429h-136q-145 0 -222 91.5t-77 270.5t77 270.5t222 91.5h174h378v-89h-320v-220h235v-90h-235v-236h333zM493 89v546h-136q-97 0 -146.5 -68.5t-49.5 -204.5q0 -135 49.5 -204t146.5 -69h136z" />
    <glyph glyph-name="oe" unicode="&#x153;" horiz-adv-x="881" 
d="M833 241h-339q6 -81 44 -122.5t108 -41.5q67 0 131 38l36 -75q-34 -25 -80 -38.5t-95 -13.5q-127 0 -189 94q-28 -47 -72.5 -71t-102.5 -24q-107 0 -165.5 72t-58.5 210q0 139 58.5 211t166.5 72q58 0 102.5 -24.5t72.5 -71.5q24 46 68 71t102 25q103 0 160 -68.5
t57 -191.5q0 -32 -4 -51zM533 427.5q-31 -38.5 -38 -113.5h245q-2 72 -33.5 112t-88.5 40q-54 0 -85 -38.5zM400 269q0 97 -31.5 146.5t-93.5 49.5t-93.5 -49.5t-31.5 -146.5t31 -146t93 -49q126 0 126 195z" />
    <glyph glyph-name="Racute" unicode="&#x154;" horiz-adv-x="633" 
d="M330 781h-84v12l150 133h116v-12zM313 269h-124v-269h-99v724h99h148q108 0 168.5 -60t60.5 -167q0 -84 -38.5 -140.5t-110.5 -76.5l187 -280h-120zM189 356h148q126 0 126 140q0 69 -33 104.5t-97 35.5h-144v-280z" />
    <glyph glyph-name="racute" unicode="&#x155;" horiz-adv-x="401" 
d="M383 537l-21 -93q-37 10 -68 10q-37 0 -64 -15t-48 -46v-393h-97v539h89v-79q55 90 144 90q35 0 65 -13zM174 625l99 159h107v-10l-132 -159h-74v10z" />
    <glyph glyph-name="Rcommaaccent" unicode="&#x156;" horiz-adv-x="633" 
d="M313 269h-124v-269h-99v724h99h148q108 0 168.5 -60t60.5 -167q0 -84 -38.5 -140.5t-110.5 -76.5l187 -280h-120zM189 356h148q126 0 126 140q0 69 -33 104.5t-97 35.5h-144v-280zM246 -238q26 28 36 55t10 67q0 7 -3 40h92q3 -17 3 -39q0 -46 -24 -84t-78 -79z" />
    <glyph glyph-name="rcommaaccent" unicode="&#x157;" horiz-adv-x="401" 
d="M383 537l-21 -93q-37 10 -68 10q-37 0 -64 -15t-48 -46v-393h-97v539h89v-79q55 90 144 90q35 0 65 -13zM44 -238q26 28 36 55t10 67q0 7 -3 40h92q3 -17 3 -39q0 -46 -24 -84t-78 -79z" />
    <glyph glyph-name="Rcaron" unicode="&#x158;" horiz-adv-x="633" 
d="M267 781l-117 133v12h76l93 -87l92 87h73v-12l-117 -133h-100zM313 269h-124v-269h-99v724h99h148q108 0 168.5 -60t60.5 -167q0 -84 -38.5 -140.5t-110.5 -76.5l187 -280h-120zM189 356h148q126 0 126 140q0 69 -33 104.5t-97 35.5h-144v-280z" />
    <glyph glyph-name="rcaron" unicode="&#x159;" horiz-adv-x="401" 
d="M383 537l-21 -93q-37 10 -68 10q-37 0 -64 -15t-48 -46v-393h-97v539h89v-79q55 90 144 90q35 0 65 -13zM382 784v-10l-102 -159h-94l-102 159v10h70l80 -103l81 103h67z" />
    <glyph glyph-name="Sacute" unicode="&#x15a;" horiz-adv-x="562" 
d="M198 793l150 133h116v-12l-182 -133h-84v12zM145 4q-60 16 -106 45l34 81q96 -54 194 -54q72 0 110.5 29.5t38.5 82.5q0 45 -26.5 73.5t-82.5 43.5l-82 23q-93 25 -135.5 73t-42.5 127q0 97 62.5 152.5t170.5 55.5q53 0 109.5 -12t104.5 -34l-33 -82q-103 40 -183 40
q-64 0 -98.5 -27.5t-34.5 -77.5q0 -45 26.5 -73t82.5 -43l82 -23q92 -26 134.5 -74t42.5 -127q0 -100 -65.5 -157.5t-180.5 -57.5q-62 0 -122 16z" />
    <glyph glyph-name="sacute" unicode="&#x15b;" horiz-adv-x="466" 
d="M119.5 1q-49.5 13 -86.5 37l35 81q73 -45 154 -45q107 0 107 73q0 29 -17.5 46.5t-56.5 26.5l-71 17q-74 17 -108.5 53.5t-34.5 97.5q0 77 51 120t143 43q46 0 91.5 -11t82.5 -31l-37 -80q-74 36 -139 36q-48 0 -72.5 -17.5t-24.5 -50.5q0 -27 18 -44t56 -26l71 -17
q74 -17 108.5 -54.5t34.5 -99.5q0 -79 -53.5 -123.5t-148.5 -44.5q-53 0 -102.5 13zM167 625l99 159h107v-10l-132 -159h-74v10z" />
    <glyph glyph-name="Scircumflex" unicode="&#x15c;" horiz-adv-x="562" 
d="M175 781h-73v12l117 133h100l117 -133v-12h-76l-93 87zM470.5 330q42.5 -48 42.5 -127q0 -100 -65.5 -157.5t-180.5 -57.5q-62 0 -122 16t-106 45l34 81q96 -54 194 -54q72 0 110.5 29.5t38.5 82.5q0 45 -26.5 73.5t-82.5 43.5l-82 23q-93 25 -135.5 73t-42.5 127
q0 97 62.5 152.5t170.5 55.5q53 0 109.5 -12t104.5 -34l-33 -82q-103 40 -183 40q-64 0 -98.5 -27.5t-34.5 -77.5q0 -45 26.5 -73t82.5 -43l82 -23q92 -26 134.5 -74z" />
    <glyph glyph-name="scircumflex" unicode="&#x15d;" horiz-adv-x="466" 
d="M119.5 1q-49.5 13 -86.5 37l35 81q73 -45 154 -45q107 0 107 73q0 29 -17.5 46.5t-56.5 26.5l-71 17q-74 17 -108.5 53.5t-34.5 97.5q0 77 51 120t143 43q46 0 91.5 -11t82.5 -31l-37 -80q-74 36 -139 36q-48 0 -72.5 -17.5t-24.5 -50.5q0 -27 18 -44t56 -26l71 -17
q74 -17 108.5 -54.5t34.5 -99.5q0 -79 -53.5 -123.5t-148.5 -44.5q-53 0 -102.5 13zM375 625v-10h-70l-81 103l-80 -103h-67v10l102 159h94z" />
    <glyph glyph-name="Scedilla" unicode="&#x15e;" horiz-adv-x="562" 
d="M457 54.5q-56 -56.5 -156 -65.5l-33 -47q14 2 21 2q50 0 78.5 -21.5t28.5 -60.5q0 -45 -32.5 -69.5t-91.5 -24.5q-60 0 -108 24l18 51q51 -18 84 -18q52 0 52 36q0 35 -47 35q-21 0 -43 -8l-24 28l31 73q-54 4 -105 19.5t-91 40.5l34 81q96 -54 194 -54q72 0 110.5 29.5
t38.5 82.5q0 45 -26.5 73.5t-82.5 43.5l-82 23q-93 25 -135.5 73t-42.5 127q0 97 62.5 152.5t170.5 55.5q53 0 109.5 -12t104.5 -34l-33 -82q-103 40 -183 40q-64 0 -98.5 -27.5t-34.5 -77.5q0 -45 26.5 -73t82.5 -43l82 -23q92 -26 134.5 -74t42.5 -127q0 -92 -56 -148.5z
" />
    <glyph glyph-name="scedilla" unicode="&#x15f;" horiz-adv-x="466" 
d="M379.5 40q-44.5 -43 -125.5 -51l-33 -47q14 2 21 2q50 0 78.5 -21.5t28.5 -60.5q0 -45 -32.5 -69.5t-91.5 -24.5q-60 0 -108 24l18 51q51 -18 84 -18q52 0 52 36q0 35 -47 35q-21 0 -43 -8l-24 28l31 73q-91 8 -155 49l35 81q73 -45 154 -45q107 0 107 73
q0 29 -17.5 46.5t-56.5 26.5l-71 17q-74 17 -108.5 53.5t-34.5 97.5q0 77 51 120t143 43q46 0 91.5 -11t82.5 -31l-37 -80q-74 36 -139 36q-48 0 -72.5 -17.5t-24.5 -50.5q0 -27 18 -44t56 -26l71 -17q74 -17 108.5 -54.5t34.5 -99.5q0 -73 -44.5 -116z" />
    <glyph glyph-name="Scaron" unicode="&#x160;" horiz-adv-x="562" 
d="M219 781l-117 133v12h76l93 -87l92 87h73v-12l-117 -133h-100zM470.5 330q42.5 -48 42.5 -127q0 -100 -65.5 -157.5t-180.5 -57.5q-62 0 -122 16t-106 45l34 81q96 -54 194 -54q72 0 110.5 29.5t38.5 82.5q0 45 -26.5 73.5t-82.5 43.5l-82 23q-93 25 -135.5 73t-42.5 127
q0 97 62.5 152.5t170.5 55.5q53 0 109.5 -12t104.5 -34l-33 -82q-103 40 -183 40q-64 0 -98.5 -27.5t-34.5 -77.5q0 -45 26.5 -73t82.5 -43l82 -23q92 -26 134.5 -74z" />
    <glyph glyph-name="scaron" unicode="&#x161;" horiz-adv-x="466" 
d="M119.5 1q-49.5 13 -86.5 37l35 81q73 -45 154 -45q107 0 107 73q0 29 -17.5 46.5t-56.5 26.5l-71 17q-74 17 -108.5 53.5t-34.5 97.5q0 77 51 120t143 43q46 0 91.5 -11t82.5 -31l-37 -80q-74 36 -139 36q-48 0 -72.5 -17.5t-24.5 -50.5q0 -27 18 -44t56 -26l71 -17
q74 -17 108.5 -54.5t34.5 -99.5q0 -79 -53.5 -123.5t-148.5 -44.5q-53 0 -102.5 13zM375 784v-10l-102 -159h-94l-102 159v10h70l80 -103l81 103h67z" />
    <glyph glyph-name="uni0162" unicode="&#x162;" horiz-adv-x="528" 
d="M295 0l-40 -58q14 2 21 2q50 0 78.5 -21.5t28.5 -60.5q0 -45 -32.5 -69.5t-91.5 -24.5q-60 0 -108 24l18 51q51 -18 84 -18q52 0 52 36q0 35 -47 35q-21 0 -43 -8l-24 28l36 84h-13v634h-188v90h287h189v-90h-189v-634h-18z" />
    <glyph glyph-name="uni0163" unicode="&#x163;" horiz-adv-x="391" 
d="M318.5 -77.5q28.5 -21.5 28.5 -60.5q0 -45 -32.5 -69.5t-91.5 -24.5q-60 0 -108 24l18 51q51 -18 84 -18q52 0 52 36q0 35 -47 35q-21 0 -43 -8l-24 28l39 92q-88 36 -88 161v287h-89v83h90v155h96v-155h157v-83h-157v-271q0 -55 22.5 -80.5t69.5 -25.5q28 0 56 9l16 -83
q-40 -12 -87 -12q-17 0 -25 1l-36 -52q14 2 21 2q50 0 78.5 -21.5z" />
    <glyph glyph-name="Tcaron" unicode="&#x164;" horiz-adv-x="528" 
d="M214 781l-117 133v12h76l93 -87l92 87h73v-12l-117 -133h-100zM502 634h-189v-634h-99v634h-188v90h287h189v-90z" />
    <glyph glyph-name="tcaron" unicode="&#x165;" horiz-adv-x="391" 
d="M270 770h87v-10l-24 -170h-63v180zM106 169v287h-89v83h90v155h96v-155h157v-83h-157v-271q0 -55 22.5 -80.5t69.5 -25.5q28 0 56 9l16 -83q-40 -12 -87 -12q-174 0 -174 176z" />
    <glyph glyph-name="Tbar" unicode="&#x166;" horiz-adv-x="528" 
d="M313 634v-247h123v-81h-123v-306h-99v306h-122v81h122v247h-188v90h287h189v-90h-189z" />
    <glyph glyph-name="tbar" unicode="&#x167;" horiz-adv-x="391" 
d="M367 5q-40 -12 -87 -12q-174 0 -174 176v110h-89v73h89v104h-89v83h90v155h96v-155h157v-83h-157v-104h157v-73h-157v-94q0 -55 22.5 -80.5t69.5 -25.5q28 0 56 9z" />
    <glyph glyph-name="Utilde" unicode="&#x168;" horiz-adv-x="686" 
d="M367.5 798q-19.5 10 -44.5 28q-18 13 -29 19t-23 6q-34 0 -41 -61h-59q2 63 28.5 99t73.5 36q26 0 45.5 -10t44.5 -28q18 -13 29 -19t23 -6q34 0 41 61h59q-2 -63 -28.5 -99t-73.5 -36q-26 0 -45.5 10zM152.5 57q-67.5 70 -67.5 197v470h99v-466q0 -90 40 -136t118 -46
q159 0 159 182v466h99v-470q0 -127 -68 -197t-190 -70t-189.5 70z" />
    <glyph glyph-name="utilde" unicode="&#x169;" horiz-adv-x="575" 
d="M490 539v-539h-89v69q-59 -82 -161 -82q-77 0 -119.5 45.5t-42.5 127.5v379h97v-368q0 -92 97 -92q36 0 65 13t56 42v405h97zM309.5 628q-19.5 10 -44.5 28q-18 13 -29 19t-23 6q-34 0 -41 -61h-59q2 63 28.5 99t73.5 36q26 0 45.5 -10t44.5 -28q18 -13 29 -19t23 -6
q34 0 41 61h59q-2 -63 -28.5 -99t-73.5 -36q-26 0 -45.5 10z" />
    <glyph glyph-name="Umacron" unicode="&#x16a;" horiz-adv-x="686" 
d="M192 880h302v-71h-302v71zM152.5 57q-67.5 70 -67.5 197v470h99v-466q0 -90 40 -136t118 -46q159 0 159 182v466h99v-470q0 -127 -68 -197t-190 -70t-189.5 70z" />
    <glyph glyph-name="umacron" unicode="&#x16b;" horiz-adv-x="575" 
d="M490 539v-539h-89v69q-59 -82 -161 -82q-77 0 -119.5 45.5t-42.5 127.5v379h97v-368q0 -92 97 -92q36 0 65 13t56 42v405h97zM134 710h302v-71h-302v71z" />
    <glyph glyph-name="Ubreve" unicode="&#x16c;" horiz-adv-x="686" 
d="M236 823.5q-39 40.5 -42 114.5h62q12 -79 88 -79q77 0 89 79h59q-3 -74 -42 -114.5t-107 -40.5t-107 40.5zM152.5 57q-67.5 70 -67.5 197v470h99v-466q0 -90 40 -136t118 -46q159 0 159 182v466h99v-470q0 -127 -68 -197t-190 -70t-189.5 70z" />
    <glyph glyph-name="ubreve" unicode="&#x16d;" horiz-adv-x="575" 
d="M490 539v-539h-89v69q-59 -82 -161 -82q-77 0 -119.5 45.5t-42.5 127.5v379h97v-368q0 -92 97 -92q36 0 65 13t56 42v405h97zM178 653.5q-39 40.5 -42 114.5h62q12 -79 88 -79q77 0 89 79h59q-3 -74 -42 -114.5t-107 -40.5t-107 40.5z" />
    <glyph glyph-name="Uring" unicode="&#x16e;" horiz-adv-x="686" 
d="M251.5 796.5q-32.5 29.5 -32.5 82.5q0 52 32.5 81.5t91.5 29.5t91.5 -29.5t32.5 -81.5q0 -53 -32.5 -82.5t-91.5 -29.5t-91.5 29.5zM401 879q0 58 -58 58t-58 -58t58 -58t58 58zM152.5 57q-67.5 70 -67.5 197v470h99v-466q0 -90 40 -136t118 -46q159 0 159 182v466h99
v-470q0 -127 -68 -197t-190 -70t-189.5 70z" />
    <glyph glyph-name="uring" unicode="&#x16f;" horiz-adv-x="575" 
d="M490 539v-539h-89v69q-59 -82 -161 -82q-77 0 -119.5 45.5t-42.5 127.5v379h97v-368q0 -92 97 -92q36 0 65 13t56 42v405h97zM194.5 631.5q-32.5 29.5 -32.5 82.5q0 52 32.5 81.5t90.5 29.5t90.5 -29.5t32.5 -81.5q0 -53 -32.5 -82.5t-90.5 -29.5t-90.5 29.5zM343 714
q0 59 -58 59t-58 -59t58 -59t58 59z" />
    <glyph glyph-name="Uhungarumlaut" unicode="&#x170;" horiz-adv-x="686" 
d="M207 793l98 133h99v-12l-129 -133h-68v12zM368 793l98 133h100v-12l-129 -133h-69v12zM152.5 57q-67.5 70 -67.5 197v470h99v-466q0 -90 40 -136t118 -46q159 0 159 182v466h99v-470q0 -127 -68 -197t-190 -70t-189.5 70z" />
    <glyph glyph-name="uhungarumlaut" unicode="&#x171;" horiz-adv-x="575" 
d="M490 539v-539h-89v69q-59 -82 -161 -82q-77 0 -119.5 45.5t-42.5 127.5v379h97v-368q0 -92 97 -92q36 0 65 13t56 42v405h97zM168 625l59 159h94v-10l-90 -159h-63v10zM314 625l60 159h94v-10l-91 -159h-63v10z" />
    <glyph glyph-name="Uogonek" unicode="&#x172;" horiz-adv-x="686" 
d="M418 -50.5q-20 -31.5 -20 -59.5q0 -42 48 -42q30 0 62 16l25 -56q-22 -14 -50 -22t-57 -8q-52 0 -81.5 25t-29.5 69q0 63 56 117q-20 -2 -29 -2q-122 0 -189.5 70t-67.5 197v470h99v-466q0 -90 39.5 -136t118.5 -46t119 46t40 136v466h99v-470q0 -76 -23.5 -127
t-76.5 -94l-27 -23q-35 -29 -55 -60.5z" />
    <glyph glyph-name="uogonek" unicode="&#x173;" horiz-adv-x="575" 
d="M538 -192q-22 -14 -50 -22t-57 -8q-52 0 -81.5 25t-29.5 69q0 38 22 71t62 56h-1v74q-35 -45 -74 -65.5t-89 -20.5q-77 0 -119.5 45.5t-42.5 127.5v379h97v-368q0 -92 97 -92q36 0 65 13t56 42v405h97v-539q-87 -50 -87 -110q0 -42 48 -42q30 0 62 16z" />
    <glyph glyph-name="Wcircumflex" unicode="&#x174;" horiz-adv-x="896" 
d="M353 781h-73v12l117 133h100l117 -133v-12h-76l-93 87zM864 724l-180 -724h-110l-128 582l-125 -582h-110l-180 724h104l132 -608l127 607h108l129 -606l131 607h102z" />
    <glyph glyph-name="wcircumflex" unicode="&#x175;" horiz-adv-x="784" 
d="M757 539l-155 -539h-106l-105 413l-104 -413h-106l-154 539h101l108 -437l106 437h100l109 -437l106 437h100zM542 625v-10h-70l-81 103l-80 -103h-67v10l102 159h94z" />
    <glyph glyph-name="Ycircumflex" unicode="&#x176;" horiz-adv-x="588" 
d="M199 781h-73v12l117 133h100l117 -133v-12h-76l-93 87zM566 724l-224 -472v-252h-99v252l-222 472h108l166 -362l164 362h107z" />
    <glyph glyph-name="ycircumflex" unicode="&#x177;" horiz-adv-x="518" 
d="M493 539l-180 -532q-27 -81 -89 -136.5t-162 -89.5l-34 83q71 25 114 56.5t68 76.5l-185 542h102l133 -431l133 431h100zM410 625v-10h-70l-81 103l-80 -103h-67v10l102 159h94z" />
    <glyph glyph-name="Ydieresis" unicode="&#x178;" horiz-adv-x="588" 
d="M150.5 804q-15.5 16 -15.5 43q0 28 15.5 44t43.5 16q27 0 42.5 -16t15.5 -43q0 -29 -15 -44.5t-43 -15.5t-43.5 16zM349.5 804q-15.5 16 -15.5 43q0 28 15.5 44t43.5 16q27 0 42.5 -16t15.5 -43q0 -29 -15 -44.5t-43 -15.5t-43.5 16zM566 724l-224 -472v-252h-99v252
l-222 472h108l166 -362l164 362h107z" />
    <glyph glyph-name="Zacute" unicode="&#x179;" horiz-adv-x="553" 
d="M288 781h-84v12l150 133h116v-12zM510 87v-87h-469v88l352 549h-339v87h451v-87l-352 -550h357z" />
    <glyph glyph-name="zacute" unicode="&#x17a;" horiz-adv-x="467" 
d="M427 82v-82h-389v82l275 375h-266v82h376v-82l-275 -375h279zM172 625l99 159h107v-10l-132 -159h-74v10z" />
    <glyph glyph-name="Zdotaccent" unicode="&#x17b;" horiz-adv-x="553" 
d="M228.5 807.5q-16.5 16.5 -16.5 45.5q0 30 16.5 46.5t46.5 16.5t46.5 -16.5t16.5 -45.5q0 -30 -16.5 -46.5t-46.5 -16.5t-46.5 16.5zM510 87v-87h-469v88l352 549h-339v87h451v-87l-352 -550h357z" />
    <glyph glyph-name="zdotaccent" unicode="&#x17c;" horiz-adv-x="467" 
d="M427 82v-82h-389v82l275 375h-266v82h376v-82l-275 -375h279zM184.5 641.5q-16.5 16.5 -16.5 45.5q0 30 16.5 46.5t46.5 16.5t46.5 -16.5t16.5 -45.5q0 -30 -16.5 -46.5t-46.5 -16.5t-46.5 16.5z" />
    <glyph glyph-name="Zcaron" unicode="&#x17d;" horiz-adv-x="553" 
d="M225 781l-117 133v12h76l93 -87l92 87h73v-12l-117 -133h-100zM510 87v-87h-469v88l352 549h-339v87h451v-87l-352 -550h357z" />
    <glyph glyph-name="zcaron" unicode="&#x17e;" horiz-adv-x="467" 
d="M427 82v-82h-389v82l275 375h-266v82h376v-82l-275 -375h279zM380 784v-10l-102 -159h-94l-102 159v10h70l80 -103l81 103h67z" />
    <glyph glyph-name="longs" unicode="&#x17f;" horiz-adv-x="287" 
d="M326 775v-85q-34 4 -55 4q-44 0 -66.5 -24.5t-22.5 -73.5v-14v-582h-97v569v27q0 87 49 135.5t137 48.5q33 0 55 -5z" />
    <glyph glyph-name="uni0180" unicode="&#x180;" horiz-adv-x="579" 
d="M476 462q53 -72 53 -203q0 -129 -55 -200.5t-154 -71.5q-46 0 -83.5 18.5t-62.5 52.5v-58h-89v615h-65v68h65v87h97v-87h218v-68h-218v-153q53 72 145 72q96 0 149 -72zM429 257q0 92 -33 139t-97 47q-34 0 -62 -14t-55 -44v-255q23 -26 55 -40.5t67 -14.5q125 0 125 182
z" />
    <glyph glyph-name="uni0181" unicode="&#x181;" horiz-adv-x="708" 
d="M660 209q0 -99 -59.5 -154t-166.5 -55h-229h-53v635q-71 0 -71 -70q0 -15 3 -42h-90q-4 17 -4 41q0 76 42.5 118t119.5 42h99h148q104 0 162 -53t58 -148q0 -109 -94 -141q135 -36 135 -173zM251 636v-222h148q58 0 88 27.5t30 80.5q0 114 -123 114h-143zM527 118.5
q30 30.5 30 89.5q0 120 -123 120h-183v-240h188q58 0 88 30.5z" />
    <glyph glyph-name="uni0182" unicode="&#x182;" horiz-adv-x="625" 
d="M513.5 402q63.5 -59 63.5 -172q0 -112 -63 -171t-175 -59h-249v724h99h334v-79h-334v-184h145q116 0 179.5 -59zM438 124.5q36 35.5 36 106.5q0 72 -34.5 107.5t-99.5 35.5h-151v-285h145q68 0 104 35.5z" />
    <glyph glyph-name="uni0183" unicode="&#x183;" horiz-adv-x="577" 
d="M474.5 477q52.5 -75 52.5 -210q0 -132 -54.5 -206t-152.5 -74q-45 0 -83 18.5t-63 52.5v-58h-89v63v438v269h97h266v-78h-266v-213q55 73 145 73q95 0 147.5 -75zM427 265q0 195 -128 195q-64 0 -117 -57v-273q23 -26 55 -40.5t67 -14.5q123 0 123 190z" />
    <glyph glyph-name="uni0184" unicode="&#x184;" horiz-adv-x="606" 
d="M522.5 401.5q63.5 -60.5 63.5 -172.5q0 -109 -63.5 -169t-174.5 -60h-249v508l-69 63v41l98 112h70v-199v-63h145q116 0 179.5 -60.5zM447 124.5q36 35.5 36 106.5t-34.5 106.5t-99.5 35.5h-151v-284h145q68 0 104 35.5z" />
    <glyph glyph-name="uni0185" unicode="&#x185;" horiz-adv-x="578" 
d="M475.5 477q52.5 -75 52.5 -210q0 -132 -54.5 -206t-152.5 -74q-45 0 -82.5 18.5t-62.5 52.5v-58h-89v559l-62 68v33l91 110h68v-193v-99q53 74 145 74q94 0 146.5 -75zM428 265q0 97 -32 146t-95 49q-34 0 -62.5 -13.5t-54.5 -43.5v-273q23 -26 55 -40.5t67 -14.5
q122 0 122 190z" />
    <glyph glyph-name="uni0186" unicode="&#x186;" horiz-adv-x="601" 
d="M467.5 641q85.5 -95 85.5 -265q0 -117 -39.5 -205t-111.5 -136t-169 -48q-51 0 -101 13.5t-90 37.5l36 78q80 -39 157 -39q102 0 158.5 77t56.5 214q0 136 -57.5 206t-170.5 70q-91 0 -150 -35l-36 77q32 24 83 37t109 13q154 0 239.5 -95z" />
    <glyph glyph-name="uni0187" unicode="&#x187;" horiz-adv-x="693" 
d="M677 852v-82q-26 3 -42 3q-76 0 -76 -79v-15v-71h-36q-80 39 -157 39q-102 0 -158.5 -76.5t-56.5 -214.5q0 -136 57.5 -206t170.5 -70q91 0 150 35l36 -77q-32 -24 -83 -37t-109 -13q-154 0 -239.5 95t-85.5 265q0 117 39.5 205t111.5 136t169 48q54 0 110 -16
q8 64 49 99.5t109 35.5q25 0 41 -4z" />
    <glyph glyph-name="uni0188" unicode="&#x188;" horiz-adv-x="573" 
d="M563 671v-81q-25 3 -41 3q-77 0 -77 -81v-15v-68h-36q-67 34 -123 34q-66 0 -103 -50t-37 -139q0 -97 38.5 -146.5t114.5 -49.5q61 0 117 32l35 -76q-30 -22 -70.5 -34t-87.5 -12q-117 0 -182 73.5t-65 205.5q0 85 30 149.5t85 100t127 35.5q38 0 77 -11q8 64 48.5 98.5
t109.5 34.5q22 0 40 -3z" />
    <glyph glyph-name="uni0189" unicode="&#x189;" horiz-adv-x="690" 
d="M548 632.5q85 -91.5 85 -270.5t-86 -270.5t-248 -91.5h-209v326h-66v81h66v317h212q161 0 246 -91.5zM472 158q58 69 58 204q0 136 -58.5 204.5t-173.5 68.5h-109v-228h176v-81h-176v-237h111q114 0 172 69z" />
    <glyph glyph-name="uni018A" unicode="&#x18a;" horiz-adv-x="753" 
d="M610 632.5q85 -91.5 85 -270.5t-86 -270.5t-248 -91.5h-209v635q-71 0 -71 -70q0 -15 3 -42h-90q-4 17 -4 41q0 76 42.5 118t119.5 42h212q161 0 246 -91.5zM534 158q58 69 58 204q0 136 -58.5 204.5t-173.5 68.5h-109v-546h111q114 0 172 69z" />
    <glyph glyph-name="uni018B" unicode="&#x18b;" horiz-adv-x="625" 
d="M535 0h-249q-112 0 -175 59t-63 171q0 113 63.5 172t179.5 59h145v184h-334v79h433v-724zM436 374h-151q-65 0 -99.5 -35.5t-34.5 -107.5q0 -71 36 -106.5t104 -35.5h145v285z" />
    <glyph glyph-name="uni018C" unicode="&#x18c;" horiz-adv-x="577" 
d="M491 0h-89v38v34q-53 -85 -153 -85q-94 0 -146.5 75t-52.5 209q0 133 54.5 207t152.5 74q42 0 77.5 -16t59.5 -45v201h-265v78h362v-770zM339.5 92.5q28.5 13.5 54.5 43.5v272q-23 27 -55 41.5t-67 14.5q-61 0 -91.5 -48t-30.5 -143q0 -194 128 -194q33 0 61.5 13.5z" />
    <glyph glyph-name="uni018D" unicode="&#x18d;" horiz-adv-x="558" 
d="M160.5 -209q-36.5 11 -69.5 31l35 78q35 -17 62.5 -25.5t62.5 -8.5q44 0 66.5 17t22.5 45q0 25 -19 43.5t-64 46.5l-33 22q-56 38 -91.5 71t-59 82.5t-23.5 119.5q0 55 24 109.5t76 91.5t131 37q70 0 121.5 -31.5t78.5 -85.5t27 -118q0 -80 -39.5 -148.5t-124.5 -102.5
q50 -34 72 -62.5t22 -69.5q0 -68 -50 -110.5t-141 -42.5q-50 0 -86.5 11zM368 181.5q39 50.5 39 128.5q0 69 -34 114t-95 45q-59 0 -94 -44t-35 -114q0 -75 31 -119t92 -79q57 18 96 68.5z" />
    <glyph glyph-name="uni018E" unicode="&#x18e;" horiz-adv-x="576" 
d="M486 724v-724h-446v89h347v236h-249v90h249v220h-334v89h433z" />
    <glyph glyph-name="uni018F" unicode="&#x18f;" horiz-adv-x="687" 
d="M547 641q82 -95 82 -280q0 -184 -75.5 -278.5t-216.5 -94.5q-90 0 -156 40.5t-102 119.5t-36 191q0 38 5 61h480q-8 114 -65.5 177t-154.5 63q-91 0 -189 -49l-38 82q44 30 104.5 46.5t124.5 16.5q155 0 237 -95zM472 138.5q48 58.5 56 173.5h-384q4 -111 54.5 -171.5
t140.5 -60.5q85 0 133 58.5z" />
    <glyph glyph-name="uni0190" unicode="&#x190;" horiz-adv-x="557" 
d="M544 42q-45 -27 -106.5 -40.5t-124.5 -13.5q-124 0 -198 56t-74 166q0 131 134 172q-106 47 -106 162q0 95 68 144t179 49q112 0 199 -49l-33 -78q-81 39 -158 39q-69 0 -111 -29t-42 -88q0 -55 36 -86t102 -31h111v-85h-119q-157 0 -157 -118q0 -66 46 -99.5t134 -33.5
q45 0 93 11.5t88 30.5z" />
    <glyph glyph-name="uni0191" unicode="&#x191;" horiz-adv-x="538" 
d="M189 635v-235h267v-90h-267v-144h1v-228q0 -77 -38.5 -116.5t-113.5 -39.5q-38 0 -67 11l15 84q22 -6 48 -6q29 0 43 17t14 54v58h-1v724h426v-89h-327z" />
    <glyph glyph-name="florin" unicode="&#x192;" horiz-adv-x="561" 
d="M334 554l-17 -138h153v-83h-164l-46 -366q-11 -84 -59.5 -130.5t-126.5 -46.5q-27 0 -59 7l14 93q20 -5 43 -5q39 0 62 23t28 68l46 357h-109v83h119l19 147q10 82 59 128t128 46q37 0 71 -11t56 -30l-49 -78q-38 24 -78 24q-80 0 -90 -88z" />
    <glyph glyph-name="uni0193" unicode="&#x193;" horiz-adv-x="754" 
d="M703 852v-82q-27 3 -42 3q-76 0 -76 -79v-15v-73h-30q-90 42 -169 42q-112 0 -168.5 -72t-56.5 -214t57 -214t170 -72q60 0 111 16v212h-128v88h227v-352q-39 -25 -94 -39t-116 -14q-157 0 -243.5 98.5t-86.5 276.5t86.5 276.5t243.5 98.5q64 0 116 -15q8 64 49 99
t109 35q25 0 41 -4z" />
    <glyph glyph-name="uni0194" unicode="&#x194;" horiz-adv-x="632" 
d="M414 47q25 -60 25 -102q0 -56 -32 -87.5t-90 -31.5t-89.5 31t-31.5 87q0 43 25 103l50 123l-242 554h106l182 -441l180 441h105l-240 -551zM352 -51q0 35 -21 84l-15 34l-15 -34q-22 -50 -22 -83q0 -48 38 -48q35 0 35 47z" />
    <glyph glyph-name="uni0195" unicode="&#x195;" horiz-adv-x="909" 
d="M823 276q0 -140 -56 -214.5t-162 -74.5q-94 0 -145.5 52t-51.5 146v93v90q0 92 -101 92q-35 0 -65.5 -11.5t-59.5 -35.5v-413h-97v770h97v-284q66 66 157 66q79 0 122.5 -45.5t43.5 -127.5v-173v-4q0 -128 102 -128q60 0 89 49t29 152q0 78 -8 135.5t-26 128.5h99
q33 -124 33 -263z" />
    <glyph glyph-name="uni0196" unicode="&#x196;" horiz-adv-x="301" 
d="M90 117v607h99v-594q0 -25 10 -36.5t32 -11.5q18 0 39 4l7 -85q-34 -8 -69 -8q-118 0 -118 124z" />
    <glyph glyph-name="uni0197" unicode="&#x197;" horiz-adv-x="320" 
d="M298 332h-88v-332h-99v332h-89v81h89v311h99v-311h88v-81z" />
    <glyph glyph-name="uni0198" unicode="&#x198;" horiz-adv-x="628" 
d="M339 403l287 -403h-119l-231 325l-87 -110v-215h-99v724h99v-381l229 305q37 49 70 70t74 21q66 0 108 -52l-55 -68q-29 29 -55 29q-15 0 -31 -12.5t-40 -42.5z" />
    <glyph glyph-name="uni0199" unicode="&#x199;" horiz-adv-x="547" 
d="M252 239l-70 -80v-159h-97v539v100q0 70 36 105.5t105 35.5q37 0 68 -12l-14 -77q-21 6 -47 6t-38.5 -15t-12.5 -46v-264v-92l218 259h115l-199 -227l211 -312h-114z" />
    <glyph glyph-name="uni019A" unicode="&#x19a;" horiz-adv-x="347" 
d="M305 2q-35 -8 -70 -8q-125 0 -125 127v238h-85v73h85v338h97v-338h94v-73h-94v-225q0 -28 12.5 -41t39.5 -13q18 0 38 4z" />
    <glyph glyph-name="uni019B" unicode="&#x19b;" horiz-adv-x="518" 
d="M393 0l-133 431l-133 -431h-102l185 542q-11 19 -20 30l-122 -60h-10v63l85 42q-46 33 -115 58l34 83q106 -36 170 -97l116 57h10v-63l-85 -42q25 -37 40 -82l180 -531h-100z" />
    <glyph glyph-name="uni019C" unicode="&#x19c;" horiz-adv-x="891" 
d="M801 724v-724h-91v61q-32 -36 -72 -55t-85 -19q-51 0 -87 21.5t-55 61.5q-34 -41 -76 -62t-88 -21q-73 0 -115 46t-42 127v564h99v-553q0 -92 90 -92q60 0 117 50q-2 20 -2 31v564h99v-553q0 -92 92 -92q59 0 117 49v596h99z" />
    <glyph glyph-name="uni019D" unicode="&#x19d;" horiz-adv-x="724" 
d="M633 724v-724h-94l-352 556v-556v-62q0 -77 -38 -116.5t-113 -39.5q-38 0 -67 11l15 84q23 -6 49 -6q29 0 43 17t14 54v224v558h94l352 -555v555h97z" />
    <glyph glyph-name="uni019E" unicode="&#x19e;" horiz-adv-x="583" 
d="M459.5 506.5q43.5 -45.5 43.5 -127.5v-379v-207h-97v272v303q0 92 -100 92q-35 0 -64.5 -11.5t-59.5 -35.5v-413h-97v539h89v-62q66 75 164 75q78 0 121.5 -45.5z" />
    <glyph glyph-name="uni019F" unicode="&#x19f;" horiz-adv-x="714" 
d="M579 642q77 -95 77 -280t-77 -280t-222 -95q-146 0 -222.5 95t-76.5 280t76.5 280t222.5 95q145 0 222 -95zM218 587.5q-49 -60.5 -57 -179.5h392q-8 119 -57.5 179.5t-138.5 60.5q-90 0 -139 -60.5zM497 138q49 62 56 184h-393q7 -122 56.5 -184t140.5 -62t140 62z" />
    <glyph glyph-name="Ohorn" unicode="&#x1a0;" horiz-adv-x="714" 
d="M669 700q-32 -35 -105 -42q92 -95 92 -296q0 -184 -77 -279.5t-222 -95.5q-146 0 -222.5 95t-76.5 280t76.5 280t222.5 95q30 0 49 -3.5t44 -9.5q16 -4 33.5 -7t37.5 -3q51 0 71.5 20.5t20.5 67.5q0 25 -5 61h88q5 -30 5 -59q0 -69 -32 -104zM503.5 148q49.5 72 49.5 214
t-49.5 214t-146.5 72t-146.5 -72t-49.5 -214t49.5 -214t146.5 -72t146.5 72z" />
    <glyph glyph-name="ohorn" unicode="&#x1a1;" horiz-adv-x="568" 
d="M544.5 522q-31.5 -32 -101.5 -38q65 -70 65 -215q0 -138 -59.5 -210t-169.5 -72t-169.5 72t-59.5 210q0 139 59.5 211t170.5 72q32 0 62 -7q34 -6 59 -6q52 0 72 17t20 61q0 25 -5 61h83q5 -30 5 -59q0 -65 -31.5 -97zM375.5 123q32.5 49 32.5 146t-32.5 146.5
t-95.5 49.5q-64 0 -97 -49.5t-33 -146.5t32.5 -146t96.5 -49t96.5 49z" />
    <glyph glyph-name="uni01A2" unicode="&#x1a2;" horiz-adv-x="891" 
d="M801 724v-932h-99v843h-96v-595q-47 -25 -111 -38t-138 -13q-146 0 -222.5 94.5t-76.5 278.5q0 186 74 279.5t225 93.5q21 0 54 -3q107 -8 195 -8h195zM507 96v542l-39 3q-11 1 -44 3t-67 2q-97 0 -146.5 -71.5t-49.5 -212.5t49.5 -212.5t146.5 -71.5q89 0 150 18z" />
    <glyph glyph-name="uni01A3" unicode="&#x1a3;" horiz-adv-x="737" 
d="M652 539v-745h-97v658h-82v-436q-106 -27 -194 -27q-111 0 -170 71t-59 209q0 139 59.5 210t170.5 71q15 0 55 -4q72 -7 138 -7h179zM376 84v372q-38 5 -74 6l-22 1q-64 1 -97 -48t-33 -146q0 -96 32.5 -144.5t96.5 -48.5q60 0 97 8z" />
    <glyph glyph-name="uni01A4" unicode="&#x1a4;" horiz-adv-x="659" 
d="M578.5 661.5q60.5 -62.5 60.5 -174.5q0 -113 -62 -176t-174 -63h-152v-248h-99v635q-71 0 -71 -70q0 -15 3 -42h-90q-4 17 -4 41q0 76 42.5 118t119.5 42h99h157q110 0 170.5 -62.5zM504 374.5q32 37.5 32 111.5t-33.5 111.5t-99.5 37.5h-152v-298h157q64 0 96 37.5z" />
    <glyph glyph-name="uni01A5" unicode="&#x1a5;" horiz-adv-x="577" 
d="M474.5 477q52.5 -75 52.5 -210q0 -132 -54.5 -206t-152.5 -74q-42 0 -77.5 15.5t-60.5 44.5v-254h-97v603v143v100q0 70 36 105.5t105 35.5q37 0 68 -12l-14 -77q-28 6 -47 6q-26 0 -38.5 -15t-12.5 -46v-157q53 73 145 73q95 0 147.5 -75zM427 265q0 195 -128 195
q-34 0 -62 -14t-55 -44v-272q23 -26 55 -40.5t67 -14.5q123 0 123 190z" />
    <glyph glyph-name="uni01A6" unicode="&#x1a6;" horiz-adv-x="616" 
d="M548 -110l-213 336h-3h-143v-226h-99v724h99v-81h147q106 0 165.5 -56t59.5 -152q0 -70 -32 -120t-93 -72l233 -353h-121zM189 313h147q61 0 91.5 31.5t30.5 89.5t-31.5 89.5t-94.5 31.5h-143v-242z" />
    <glyph glyph-name="uni01A7" unicode="&#x1a7;" horiz-adv-x="562" 
d="M114.5 45.5q-65.5 57.5 -65.5 157.5q0 79 42.5 127t134.5 74l82 23q56 15 82.5 43t26.5 73q0 50 -34.5 77.5t-98.5 27.5q-80 0 -183 -40l-33 82q48 22 104.5 34t109.5 12q108 0 170.5 -55.5t62.5 -152.5q0 -79 -42.5 -127t-135.5 -73l-82 -23q-56 -15 -82.5 -43.5
t-26.5 -73.5q0 -53 38.5 -82.5t110.5 -29.5q98 0 194 54l34 -81q-46 -29 -106 -45t-122 -16q-115 0 -180.5 57.5z" />
    <glyph glyph-name="uni01A8" unicode="&#x1a8;" horiz-adv-x="466" 
d="M95.5 32.5q-53.5 44.5 -53.5 123.5q0 62 34.5 99.5t108.5 54.5l71 17q38 9 56 26t18 44q0 33 -24.5 50.5t-71.5 17.5q-67 0 -139 -36l-38 80q37 20 82.5 31t92.5 11q91 0 142 -43t51 -120q0 -61 -34.5 -97.5t-108.5 -53.5l-71 -17q-39 -9 -56.5 -26.5t-17.5 -46.5
q0 -73 108 -73q80 0 154 45l34 -81q-37 -24 -86.5 -37t-101.5 -13q-96 0 -149.5 44.5z" />
    <glyph glyph-name="uni01A9" unicode="&#x1a9;" horiz-adv-x="581" 
d="M51 88l230 279l-230 270v87h489v-87h-371l234 -270l-234 -280h371v-87h-489v88z" />
    <glyph glyph-name="uni01AA" unicode="&#x1aa;" horiz-adv-x="318" 
d="M377 -132v-85q-23 -5 -55 -5q-88 0 -137 48.5t-49 135.5v77v516q-22 -19 -66 -19q-55 0 -87 31t-32 90q0 61 37 95.5t103 34.5q65 0 103 -35t38 -95v-650v-45q0 -98 90 -98q19 0 55 4zM127 622q13 14 13 39q0 23 -13 36t-36 13q-50 0 -50 -51t48 -51q25 0 38 14z" />
    <glyph glyph-name="uni01AB" unicode="&#x1ab;" horiz-adv-x="391" 
d="M367 6v-82q0 -141 -137 -141q-39 0 -72 11l14 78q21 -6 51 -6q29 0 42.5 15t13.5 46v66q-86 0 -129.5 44.5t-43.5 131.5v287h-89v83h90v155h96v-155h157v-83h-157v-271q0 -55 22.5 -80.5t69.5 -25.5q28 0 56 9l15 -82h1z" />
    <glyph glyph-name="uni01AC" unicode="&#x1ac;" horiz-adv-x="528" 
d="M502 634h-189v-634h-99v634h-57q-71 0 -71 -69q0 -15 3 -42h-90q-4 17 -4 41q0 76 42 117.5t118 42.5h158h189v-90z" />
    <glyph glyph-name="uni01AD" unicode="&#x1ad;" horiz-adv-x="391" 
d="M367 5q-40 -12 -87 -12q-174 0 -174 176v287h-89v83h90v57q0 87 51.5 135.5t144.5 48.5q32 0 55 -5v-85q-36 4 -55 4q-49 0 -74.5 -25t-25.5 -73v-57h157v-83h-157v-271q0 -55 22.5 -80.5t69.5 -25.5q28 0 56 9z" />
    <glyph glyph-name="uni01AE" unicode="&#x1ae;" horiz-adv-x="528" 
d="M327 -112q14 -17 43 -17q26 0 48 6l15 -84q-29 -11 -67 -11q-75 0 -113.5 39.5t-38.5 116.5v228v468h-188v90h287h189v-90h-189v-692q0 -37 14 -54z" />
    <glyph glyph-name="Uhorn" unicode="&#x1af;" horiz-adv-x="686" 
d="M693 708.5q-28 -32.5 -93 -41.5v-413q0 -127 -68 -197t-190 -70t-189.5 70t-67.5 197v470h99v-466q0 -90 40 -136t118 -46q159 0 159 182v466h41q52 0 72 17t20 61q0 25 -5 61h87q5 -30 5 -59q0 -63 -28 -95.5z" />
    <glyph glyph-name="uhorn" unicode="&#x1b0;" horiz-adv-x="575" 
d="M579 524q-27 -32 -89 -40v-484h-89v69q-59 -82 -161 -82q-77 0 -119.5 45.5t-42.5 127.5v379h97v-368q0 -92 97 -92q36 0 65 13t56 42v405h38q52 0 71.5 17t19.5 61q0 25 -5 61h84q5 -30 5 -59q0 -63 -27 -95z" />
    <glyph glyph-name="uni01B1" unicode="&#x1b1;" horiz-adv-x="734" 
d="M147.5 75.5q-78.5 87.5 -78.5 242.5q0 195 132 322h-143v84h259v-86q-75 -60 -110 -135.5t-35 -178.5q0 -249 195 -249t195 249q0 102 -35 178t-110 136v86h259v-84h-144q133 -127 133 -322q0 -155 -78.5 -242.5t-219.5 -87.5t-219.5 87.5z" />
    <glyph glyph-name="uni01B2" unicode="&#x1b2;" horiz-adv-x="686" 
d="M532 57q-68 -70 -190 -70t-189.5 70t-67.5 197v470h99v-466q0 -90 40 -136t118 -46q159 0 159 182v95v224q0 37 -13.5 54t-42.5 17q-25 0 -48 -6l-15 84q29 11 66 11q152 0 152 -156v-327q0 -127 -68 -197z" />
    <glyph glyph-name="uni01B3" unicode="&#x1b3;" horiz-adv-x="651" 
d="M643 705q31 -36 36 -107l-81 -15q-5 34 -15 49.5t-27 15.5q-13 0 -24.5 -11t-23.5 -37l-166 -348v-252h-99v252l-222 472h108l166 -362l122 267q26 58 59.5 85t79.5 27q56 0 87 -36z" />
    <glyph glyph-name="uni01B4" unicode="&#x1b4;" horiz-adv-x="627" 
d="M652 517l-80 -14q-5 32 -14.5 47t-26.5 15q-15 0 -27 -15t-24 -50l-167 -493q-28 -81 -89.5 -136.5t-161.5 -89.5l-34 83q71 25 114 56.5t68 76.5l-185 542h102l133 -431l131 423q37 124 141 124q110 0 120 -138z" />
    <glyph glyph-name="uni01B5" unicode="&#x1b5;" horiz-adv-x="553" 
d="M510 87v-87h-469v88l161 251h-120v79h171l140 219h-339v87h451v-87l-140 -219h104v-79h-155l-161 -252h357z" />
    <glyph glyph-name="uni01B6" unicode="&#x1b6;" horiz-adv-x="467" 
d="M427 82v-82h-389v82l115 158h-92v68h143l109 149h-266v82h376v-82l-109 -149h95v-68h-146l-115 -158h279z" />
    <glyph glyph-name="uni01B7" unicode="&#x1b7;" horiz-adv-x="577" 
d="M529 223q0 -115 -79 -175t-205 -60q-63 0 -123 13.5t-108 40.5l38 80q93 -43 191 -43q88 0 135.5 36.5t47.5 107.5q0 73 -56 103t-163 30h-42v78l199 202h-314v88h435v-90l-198 -201q242 -20 242 -210z" />
    <glyph glyph-name="uni01B8" unicode="&#x1b8;" horiz-adv-x="577" 
d="M563 42q-48 -27 -108 -40.5t-123 -13.5q-126 0 -205 60t-79 175q0 188 242 210l-198 201v90h435v-88h-314l199 -202v-78h-42q-107 0 -163 -30t-56 -103q0 -71 47.5 -107.5t135.5 -36.5q98 0 191 43z" />
    <glyph glyph-name="uni01B9" unicode="&#x1b9;" horiz-adv-x="503" 
d="M483 -179q-74 -41 -189 -41q-72 0 -130 25.5t-91.5 77.5t-33.5 127q0 100 61 150t166 60l-189 235v84h386v-83h-275l185 -234v-75h-46q-85 0 -136.5 -32t-51.5 -105q0 -71 42.5 -108.5t119.5 -37.5q76 0 148 33z" />
    <glyph glyph-name="uni01BA" unicode="&#x1ba;" horiz-adv-x="462" 
d="M274 -113.5q47 10.5 93 32.5l33 -78q-103 -47 -213 -47q-90 0 -138.5 36.5t-48.5 105.5q0 80 54.5 106.5t129.5 28.5q44 1 72.5 6t48 23t19.5 55q0 48 -39.5 69t-128.5 21h-35v72l147 139h-248v83h365v-85l-153 -137q98 -8 145 -47t47 -113q0 -71 -36 -107.5t-86 -48
t-116 -14.5q-41 -1 -66.5 -10.5t-25.5 -42.5q0 -58 97 -58q36 0 83 10.5z" />
    <glyph glyph-name="uni01BB" unicode="&#x1bb;" horiz-adv-x="532" 
d="M351 317l-198 -232h321v-85h-436v86l193 231h-178v79h244q40 48 56 80.5t16 63.5q0 50 -32.5 78t-90.5 28q-42 0 -85.5 -14.5t-80.5 -40.5l-46 76q40 32 101 51t119 19q97 0 155.5 -52t58.5 -137q0 -37 -13 -73.5t-42 -78.5h61v-79h-123z" />
    <glyph glyph-name="uni01BC" unicode="&#x1bc;" horiz-adv-x="546" 
d="M436.5 388.5q61.5 -57.5 61.5 -158.5q0 -73 -30.5 -128t-86.5 -85t-132 -30q-53 0 -107.5 15.5t-91.5 40.5l38 82q39 -22 81 -34.5t80 -12.5q71 0 109.5 40t38.5 111q0 67 -40.5 103t-125.5 42l-130 8v257h-82v85h141h306v-85h-268v-178l59 -5q118 -10 179.5 -67.5z" />
    <glyph glyph-name="uni01BD" unicode="&#x1bd;" horiz-adv-x="472" 
d="M375.5 285.5q54.5 -41.5 54.5 -119.5q0 -85 -57.5 -132t-158.5 -47q-47 0 -94.5 12t-80.5 32l34 76q32 -16 69 -24.5t72 -8.5q56 0 86 23t30 69q0 43 -34 65.5t-94 25.5l-118 8v191h-71v83h122h269v-83h-226v-119l41 -3q102 -7 156.5 -48.5z" />
    <glyph glyph-name="uni01BE" unicode="&#x1be;" horiz-adv-x="498" 
d="M140.5 3q-53.5 15 -90.5 39l34 81q37 -23 79.5 -36t82.5 -13q53 0 80.5 18t27.5 53q0 30 -19.5 47.5t-59.5 36.5q-36 18 -58.5 33.5t-38.5 43.5t-16 71v79h-89v83h89v155h97v-155h156v-83h-156v-75q0 -30 19 -47t60 -39q35 -17 57 -33t37.5 -42.5t15.5 -66.5
q0 -78 -53.5 -121.5t-148.5 -43.5q-52 0 -105.5 15z" />
    <glyph glyph-name="uni01BF" unicode="&#x1bf;" horiz-adv-x="564" 
d="M468.5 497q45.5 -55 45.5 -154q0 -62 -21 -111t-68.5 -96.5t-132.5 -104.5l-110 -73v-165h-97v746h89v-81q62 94 167 94q82 0 127.5 -55zM383 223.5q31 45.5 31 109.5q0 127 -101 127q-35 0 -66 -16.5t-65 -52.5v-330l90 61q80 56 111 101.5z" />
    <glyph glyph-name="uni01C0" unicode="&#x1c0;" horiz-adv-x="271" 
d="M92 770h87v-770h-87v770z" />
    <glyph glyph-name="uni01C1" unicode="&#x1c1;" horiz-adv-x="426" 
d="M92 770h87v-770h-87v770zM248 770h87v-770h-87v770z" />
    <glyph glyph-name="uni01C2" unicode="&#x1c2;" horiz-adv-x="349" 
d="M217 457v-143h110v-84h-110v-230h-87v230h-108v84h108v143h-108v84h108v229h87v-229h110v-84h-110z" />
    <glyph glyph-name="uni01C3" unicode="&#x1c3;" horiz-adv-x="353" 
d="M119 770h111l-15 -576h-78zM127.5 4.5q-17.5 17.5 -17.5 47.5q0 32 17.5 49t49.5 17q31 0 48.5 -17.5t17.5 -47.5q0 -31 -17.5 -48.5t-48.5 -17.5q-32 0 -49.5 17.5z" />
    <glyph glyph-name="uni01C4" unicode="&#x1c4;" horiz-adv-x="1205" 
d="M877 781l-117 133v12h76l93 -87l92 87h73v-12l-117 -133h-100zM548 632.5q85 -91.5 85 -270.5t-86 -270.5t-248 -91.5h-209v724h212q161 0 246 -91.5zM1162 87v-87h-469v88l353 549h-340v87h451v-87l-353 -550h358zM472 158q58 69 58 204q0 136 -58.5 204.5t-173.5 68.5
h-109v-546h111q114 0 172 69z" />
    <glyph glyph-name="uni01C5" unicode="&#x1c5;" horiz-adv-x="1129" 
d="M843 611l-117 133v12h76l93 -87l92 87h73v-12l-117 -133h-100zM548 632.5q85 -91.5 85 -270.5t-86 -270.5t-248 -91.5h-209v724h212q161 0 246 -91.5zM472 158q58 69 58 204q0 136 -58.5 204.5t-173.5 68.5h-109v-546h111q114 0 172 69zM1089 82v-82h-389v82l276 375
h-267v82h376v-82l-275 -375h279z" />
    <glyph glyph-name="uni01C6" unicode="&#x1c6;" horiz-adv-x="1025" 
d="M491 770v-770h-89v38v34q-53 -85 -153 -85q-94 0 -146.5 75t-52.5 209q0 133 54.5 207t152.5 74q42 0 77.5 -16t59.5 -45v279h97zM339.5 92.5q28.5 13.5 54.5 43.5v272q-23 27 -55 41.5t-67 14.5q-61 0 -91.5 -48t-30.5 -143q0 -194 128 -194q33 0 61.5 13.5zM985 82v-82
h-389v82l275 375h-266v82h376v-82l-275 -375h279zM938 784v-10l-102 -159h-94l-102 159v10h70l80 -103l81 103h67z" />
    <glyph glyph-name="uni01C7" unicode="&#x1c7;" horiz-adv-x="978" 
d="M189 90h312v-90h-411v724h99v-634zM893 724v-541q0 -93 -50 -144.5t-139 -51.5q-38 0 -76 9t-67 25l35 82q58 -26 105 -26q93 0 93 110v537h99z" />
    <glyph glyph-name="uni01C8" unicode="&#x1c8;" horiz-adv-x="800" 
d="M501 90v-90h-411v724h99v-634h312zM477 -141q56 20 85.5 41.5t41.5 53t12 83.5v502h97v-504q0 -74 -18 -120t-61.5 -77.5t-123.5 -58.5zM618.5 641.5q-16.5 16.5 -16.5 45.5q0 30 16.5 46.5t46.5 16.5t46.5 -16.5t16.5 -45.5q0 -30 -16.5 -46.5t-46.5 -16.5t-46.5 16.5z
" />
    <glyph glyph-name="uni01C9" unicode="&#x1c9;" horiz-adv-x="579" 
d="M83 121v649h97v-636q0 -28 12.5 -41t40.5 -13q17 0 38 4l8 -82q-35 -8 -70 -8q-126 0 -126 127zM243 -141q56 20 85.5 41.5t41.5 53t12 83.5v502h97v-504q0 -74 -18 -120t-61.5 -77.5t-123.5 -58.5zM384.5 641.5q-16.5 16.5 -16.5 45.5q0 30 16.5 46.5t46.5 16.5
t46.5 -16.5t16.5 -45.5q0 -30 -16.5 -46.5t-46.5 -16.5t-46.5 16.5z" />
    <glyph glyph-name="uni01CA" unicode="&#x1ca;" horiz-adv-x="1123" 
d="M536 724h97v-724h-94l-352 556v-556h-97v724h94l352 -555v555zM1038 724v-541q0 -93 -50 -144.5t-139 -51.5q-38 0 -76 9t-67 25l35 82q58 -26 105 -26q93 0 93 110v537h99z" />
    <glyph glyph-name="uni01CB" unicode="&#x1cb;" horiz-adv-x="983" 
d="M633 724v-724h-94l-352 556v-556h-97v724h94l352 -555v555h97zM659 -141q56 20 85.5 41.5t41.5 53t12 83.5v502h97v-504q0 -74 -18 -120t-61.5 -77.5t-123.5 -58.5zM800.5 641.5q-16.5 16.5 -16.5 45.5q0 30 16.5 46.5t46.5 16.5t46.5 -16.5t16.5 -45.5
q0 -30 -16.5 -46.5t-46.5 -16.5t-46.5 16.5z" />
    <glyph glyph-name="uni01CC" unicode="&#x1cc;" horiz-adv-x="843" 
d="M459.5 506.5q43.5 -45.5 43.5 -127.5v-379h-97v368q0 92 -100 92q-35 0 -64.5 -11.5t-59.5 -35.5v-413h-97v539h89v-62q66 75 164 75q78 0 121.5 -45.5zM519 -141q56 20 85.5 41.5t41.5 53t12 83.5v502h97v-504q0 -74 -18 -120t-61.5 -77.5t-123.5 -58.5zM660.5 641.5
q-16.5 16.5 -16.5 45.5q0 30 16.5 46.5t46.5 16.5t46.5 -16.5t16.5 -45.5q0 -30 -16.5 -46.5t-46.5 -16.5t-46.5 16.5z" />
    <glyph glyph-name="uni01CD" unicode="&#x1cd;" horiz-adv-x="668" 
d="M284 781l-117 133v12h76l93 -87l92 87h73v-12l-117 -133h-100zM477 182h-288l-59 -182h-105l254 724h110l253 -724h-106zM448 269l-116 355l-115 -355h231z" />
    <glyph glyph-name="uni01CE" unicode="&#x1ce;" horiz-adv-x="531" 
d="M399.5 507.5q53.5 -44.5 53.5 -128.5v-379h-88v71q-52 -82 -161 -82q-79 0 -122.5 42t-43.5 119q0 96 77 141.5t242 46.5v31q0 46 -30 70t-88 24q-66 0 -126 -28l-25 78q79 39 166 39q92 0 145.5 -44.5zM357 134v133q-117 -2 -171 -28t-54 -82q0 -41 24 -62t71 -21
q75 0 130 60zM403 784v-10l-102 -159h-94l-102 159v10h70l80 -103l81 103h67z" />
    <glyph glyph-name="uni01CF" unicode="&#x1cf;" horiz-adv-x="283" 
d="M309 926v-12l-117 -133h-100l-117 133v12h76l93 -87l92 87h73zM92 724h99v-724h-99v724z" />
    <glyph glyph-name="uni01D0" unicode="&#x1d0;" horiz-adv-x="272" 
d="M87 539h97v-539h-97v539zM285 784v-10l-102 -159h-94l-102 159v10h70l80 -103l81 103h67z" />
    <glyph glyph-name="uni01D1" unicode="&#x1d1;" horiz-adv-x="714" 
d="M307 781l-117 133v12h76l93 -87l92 87h73v-12l-117 -133h-100zM579 642q77 -95 77 -280t-77 -280t-222 -95q-146 0 -222.5 95t-76.5 280t76.5 280t222.5 95q145 0 222 -95zM503.5 148q49.5 72 49.5 214t-49.5 214t-146.5 72t-146.5 -72t-49.5 -214t49.5 -214t146.5 -72
t146.5 72z" />
    <glyph glyph-name="uni01D2" unicode="&#x1d2;" horiz-adv-x="558" 
d="M109 58.5q-59 71.5 -59 210.5t59.5 211t170.5 72q110 0 169 -72t59 -211q0 -138 -59.5 -210t-169.5 -72q-111 0 -170 71.5zM375.5 123q32.5 49 32.5 146t-32.5 146.5t-95.5 49.5q-64 0 -97 -49.5t-33 -146.5t32.5 -146t96.5 -49t96.5 49zM429 784v-10l-102 -159h-94
l-102 159v10h70l80 -103l81 103h67z" />
    <glyph glyph-name="uni01D3" unicode="&#x1d3;" horiz-adv-x="686" 
d="M293 781l-117 133v12h76l93 -87l92 87h73v-12l-117 -133h-100zM600 724v-470q0 -127 -68 -197t-190 -70t-189.5 70t-67.5 197v470h99v-466q0 -90 40 -136t118 -46q159 0 159 182v466h99z" />
    <glyph glyph-name="uni01D4" unicode="&#x1d4;" horiz-adv-x="575" 
d="M490 539v-539h-89v69q-59 -82 -161 -82q-77 0 -119.5 45.5t-42.5 127.5v379h97v-368q0 -92 97 -92q36 0 65 13t56 42v405h97zM434 784v-10l-102 -159h-94l-102 159v10h70l80 -103l81 103h67z" />
    <glyph glyph-name="uni01D5" unicode="&#x1d5;" horiz-adv-x="686" 
d="M192 994h302v-69h-302v69zM208 784.5q-15 15.5 -15 42.5t15 42t42 15t42 -15t15 -42t-15 -42.5t-42 -15.5t-42 15.5zM393 784.5q-15 15.5 -15 42.5t15 42t42 15t42 -15t15 -42t-15 -42.5t-42 -15.5t-42 15.5zM152.5 57q-67.5 70 -67.5 197v470h99v-466q0 -90 40 -136
t118 -46q159 0 159 182v466h99v-470q0 -127 -68 -197t-190 -70t-189.5 70z" />
    <glyph glyph-name="uni01D6" unicode="&#x1d6;" horiz-adv-x="575" 
d="M436 755h-302v69h302v-69zM150 699q15 15 42 15t42 -15t15 -42t-15 -42.5t-42 -15.5t-42 15.5t-15 42.5t15 42zM335 699q15 15 42 15t42 -15t15 -42t-15 -42.5t-42 -15.5t-42 15.5t-15 42.5t15 42zM490 539v-539h-89v69q-59 -82 -161 -82q-77 0 -119.5 45.5t-42.5 127.5
v379h97v-368q0 -92 97 -92q36 0 65 13t56 42v405h97z" />
    <glyph glyph-name="uni01D7" unicode="&#x1d7;" horiz-adv-x="686" 
d="M309 915l78 127h88v-10l-102 -127h-64v10zM208 784.5q-15 15.5 -15 42.5t15 42t42 15t42 -15t15 -42t-15 -42.5t-42 -15.5t-42 15.5zM393 784.5q-15 15.5 -15 42.5t15 42t42 15t42 -15t15 -42t-15 -42.5t-42 -15.5t-42 15.5zM152.5 57q-67.5 70 -67.5 197v470h99v-466
q0 -90 40 -136t118 -46q159 0 159 182v466h99v-470q0 -127 -68 -197t-190 -70t-189.5 70z" />
    <glyph glyph-name="uni01D8" unicode="&#x1d8;" horiz-adv-x="575" 
d="M315 735h-64v10l78 127h88v-10zM150 614.5q-15 15.5 -15 42.5t15 42t42 15t42 -15t15 -42t-15 -42.5t-42 -15.5t-42 15.5zM335 699q15 15 42 15t42 -15t15 -42t-15 -42.5t-42 -15.5t-42 15.5t-15 42.5t15 42zM490 539v-539h-89v69q-59 -82 -161 -82q-77 0 -119.5 45.5
t-42.5 127.5v379h97v-368q0 -92 97 -92q36 0 65 13t56 42v405h97z" />
    <glyph glyph-name="uni01D9" unicode="&#x1d9;" horiz-adv-x="686" 
d="M296 908l-104 126v10h68l85 -81l84 81h65v-10l-104 -126h-94zM292 869q15 -15 15 -42t-15 -42.5t-42 -15.5t-42 15.5t-15 42.5t15 42t42 15t42 -15zM393 869q15 15 42 15t42 -15t15 -42t-15 -42.5t-42 -15.5t-42 15.5t-15 42.5t15 42zM600 724v-470q0 -127 -68 -197
t-190 -70t-189.5 70t-67.5 197v470h99v-466q0 -90 40 -136t118 -46q159 0 159 182v466h99z" />
    <glyph glyph-name="uni01DA" unicode="&#x1da;" horiz-adv-x="575" 
d="M238 729l-104 139v10h70l83 -90l82 90h67v-10l-104 -139h-94zM234 699q15 -15 15 -42t-15 -42.5t-42 -15.5t-42 15.5t-15 42.5t15 42t42 15t42 -15zM335 699q15 15 42 15t42 -15t15 -42t-15 -42.5t-42 -15.5t-42 15.5t-15 42.5t15 42zM490 539v-539h-89v69
q-59 -82 -161 -82q-77 0 -119.5 45.5t-42.5 127.5v379h97v-368q0 -92 97 -92q36 0 65 13t56 42v405h97z" />
    <glyph glyph-name="uni01DB" unicode="&#x1db;" horiz-adv-x="686" 
d="M219 1032v10h88l72 -127v-10h-64zM208 784.5q-15 15.5 -15 42.5t15 42t42 15t42 -15t15 -42t-15 -42.5t-42 -15.5t-42 15.5zM393 784.5q-15 15.5 -15 42.5t15 42t42 15t42 -15t15 -42t-15 -42.5t-42 -15.5t-42 15.5zM152.5 57q-67.5 70 -67.5 197v470h99v-466
q0 -90 40 -136t118 -46q159 0 159 182v466h99v-470q0 -127 -68 -197t-190 -70t-189.5 70z" />
    <glyph glyph-name="uni01DC" unicode="&#x1dc;" horiz-adv-x="575" 
d="M257 735l-96 127v10h88l72 -127v-10h-64zM150 614.5q-15 15.5 -15 42.5t15 42t42 15t42 -15t15 -42t-15 -42.5t-42 -15.5t-42 15.5zM335 614.5q-15 15.5 -15 42.5t15 42t42 15t42 -15t15 -42t-15 -42.5t-42 -15.5t-42 15.5zM490 539v-539h-89v69q-59 -82 -161 -82
q-77 0 -119.5 45.5t-42.5 127.5v379h97v-368q0 -92 97 -92q36 0 65 13t56 42v405h97z" />
    <glyph glyph-name="uni01DD" unicode="&#x1dd;" horiz-adv-x="541" 
d="M428.5 477q64.5 -74 64.5 -207q0 -134 -60 -208.5t-168 -74.5q-105 0 -163 68.5t-58 191.5q0 31 4 51h347q-11 164 -156 164q-72 0 -136 -38l-35 75q34 25 81 38.5t98 13.5q117 0 181.5 -74zM355 111.5q32 38.5 39 113.5h-253q2 -72 35 -112t91 -40q56 0 88 38.5z" />
    <glyph glyph-name="uni01DE" unicode="&#x1de;" horiz-adv-x="668" 
d="M485 960h-302v71h302v-71zM191.5 804q-15.5 16 -15.5 43q0 28 15.5 44t43.5 16q27 0 42.5 -16t15.5 -43q0 -29 -15 -44.5t-43 -15.5t-43.5 16zM476.5 891q15.5 -16 15.5 -43q0 -29 -15 -44.5t-43 -15.5t-43.5 16t-15.5 43q0 28 15.5 44t43.5 16q27 0 42.5 -16zM477 182
h-288l-59 -182h-105l254 724h110l253 -724h-106zM448 269l-116 355l-115 -355h231z" />
    <glyph glyph-name="uni01DF" unicode="&#x1df;" horiz-adv-x="531" 
d="M405 791h-302v71h302v-71zM116.5 639q-15.5 16 -15.5 43q0 28 15.5 44t43.5 16q27 0 42.5 -16t15.5 -43q0 -29 -15 -44.5t-43 -15.5t-43.5 16zM391.5 726q15.5 -16 15.5 -43q0 -29 -15 -44.5t-43 -15.5t-43.5 16t-15.5 43q0 28 15.5 44t43.5 16q27 0 42.5 -16z
M399.5 507.5q53.5 -44.5 53.5 -128.5v-379h-88v71q-52 -82 -161 -82q-79 0 -122.5 42t-43.5 119q0 96 77 141.5t242 46.5v31q0 46 -30 70t-88 24q-66 0 -126 -28l-25 78q79 39 166 39q92 0 145.5 -44.5zM357 134v133q-117 -2 -171 -28t-54 -82q0 -41 24 -62t71 -21
q75 0 130 60z" />
    <glyph glyph-name="uni01E0" unicode="&#x1e0;" horiz-adv-x="668" 
d="M485 960h-302v71h302v-71zM287.5 899.5q16.5 16.5 46.5 16.5t46.5 -16.5t16.5 -45.5q0 -30 -16.5 -46.5t-46.5 -16.5t-46.5 16.5t-16.5 45.5q0 30 16.5 46.5zM477 182h-288l-59 -182h-105l254 724h110l253 -724h-106zM448 269l-116 355l-115 -355h231z" />
    <glyph glyph-name="uni01E1" unicode="&#x1e1;" horiz-adv-x="531" 
d="M399.5 507.5q53.5 -44.5 53.5 -128.5v-379h-88v71q-52 -82 -161 -82q-79 0 -122.5 42t-43.5 119q0 96 77 141.5t242 46.5v31q0 46 -30 70t-88 24q-66 0 -126 -28l-25 78q79 39 166 39q92 0 145.5 -44.5zM357 134v133q-117 -2 -171 -28t-54 -82q0 -41 24 -62t71 -21
q75 0 130 60zM207.5 641.5q-16.5 16.5 -16.5 45.5q0 30 16.5 46.5t46.5 16.5t46.5 -16.5t16.5 -45.5q0 -30 -16.5 -46.5t-46.5 -16.5t-46.5 16.5zM103 866h302v-71h-302v71z" />
    <glyph glyph-name="uni01E2" unicode="&#x1e2;" horiz-adv-x="911" 
d="M638 809h-302v71h302v-71zM872 89v-89h-429v173h-249l-91 -173h-107l384 724h100h379v-89h-320v-220h235v-90h-235v-236h333zM443 260v392l-204 -392h204z" />
    <glyph glyph-name="uni01E3" unicode="&#x1e3;" horiz-adv-x="828" 
d="M780 241h-339q6 -81 44 -122.5t108 -41.5q67 0 131 38l36 -75q-34 -25 -80 -38.5t-95 -13.5q-66 0 -115.5 25.5t-79.5 74.5q-41 -51 -87.5 -75t-103.5 -24q-76 0 -118.5 42t-42.5 118q0 93 75 137t235 45v38q0 94 -113 94q-63 0 -122 -28l-25 78q79 39 162 39
q56 0 96 -20t62 -58q25 38 66 58t93 20q103 0 160 -68.5t57 -191.5q0 -32 -4 -51zM480 427.5q-31 -38.5 -38 -113.5h245q-2 72 -33.5 112t-88.5 40q-54 0 -85 -38.5zM362 151q-14 46 -16 109q-110 -2 -162 -27t-52 -77q0 -82 91 -82q79 0 139 77zM274 710h302v-71h-302v71z
" />
    <glyph glyph-name="uni01E4" unicode="&#x1e4;" horiz-adv-x="670" 
d="M669 159h-71v-119q-39 -25 -94 -39t-116 -14q-157 0 -243.5 98.5t-86.5 276.5t86.5 276.5t243.5 98.5q56 0 108 -13.5t89 -36.5l-30 -81q-90 42 -169 42q-112 0 -168.5 -72t-56.5 -214t57 -214t170 -72q60 0 111 16v67h-128v77h128v68h-128v88h227v-156h71v-77z" />
    <glyph glyph-name="uni01E5" unicode="&#x1e5;" horiz-adv-x="579" 
d="M564 -72h-80q-21 -72 -80 -110t-149 -38q-43 0 -85 9t-74 25l27 77q61 -28 126 -28q100 0 133 65h-352v57h366q1 5 1 17v96q-52 -73 -146 -73q-95 0 -148 70t-53 195q0 123 55 192.5t154 69.5q46 0 83.5 -18.5t62.5 -53.5v59h89v-533q0 -14 -1 -21h71v-57zM342.5 130.5
q28.5 13.5 54.5 43.5v234q-24 27 -56 41.5t-67 14.5q-61 0 -92.5 -43.5t-31.5 -128.5q0 -86 33 -130.5t97 -44.5q34 0 62.5 13.5z" />
    <glyph glyph-name="Gcaron" unicode="&#x1e6;" horiz-adv-x="668" 
d="M310 781l-117 133v12h76l93 -87l92 87h73v-12l-117 -133h-100zM598 392v-352q-39 -25 -94 -39t-116 -14q-157 0 -243.5 98.5t-86.5 276.5t86.5 276.5t243.5 98.5q56 0 108 -13.5t89 -36.5l-30 -81q-90 42 -169 42q-112 0 -168.5 -72t-56.5 -214t57 -214t170 -72
q60 0 111 16v212h-128v88h227z" />
    <glyph glyph-name="gcaron" unicode="&#x1e7;" horiz-adv-x="579" 
d="M494 539v-533q0 -107 -63 -166.5t-176 -59.5q-43 0 -85 9t-74 25l29 82q60 -29 124 -29q148 0 148 139v84q-53 -73 -146 -73q-95 0 -148 71t-53 198q0 126 55 196t154 70q46 0 83.5 -18.5t62.5 -53.5v59h89zM342.5 122.5q28.5 13.5 54.5 43.5v242q-24 27 -56 41.5
t-67 14.5q-124 0 -124 -176q0 -89 33 -134t97 -45q34 0 62.5 13.5zM435 784v-10l-102 -159h-94l-102 159v10h70l80 -103l81 103h67z" />
    <glyph glyph-name="uni01E8" unicode="&#x1e8;" horiz-adv-x="624" 
d="M275 781l-117 133v12h76l93 -87l92 87h73v-12l-117 -133h-100zM278 322l-89 -107v-215h-99v724h99v-382l302 382h119l-268 -325l284 -399h-119z" />
    <glyph glyph-name="uni01E9" unicode="&#x1e9;" horiz-adv-x="547" 
d="M184 827h-100l-117 133v12h76l93 -87l92 87h73v-12zM252 239l-70 -80v-159h-97v770h97v-490l218 259h115l-199 -227l211 -312h-114z" />
    <glyph glyph-name="uni01EA" unicode="&#x1ea;" horiz-adv-x="714" 
d="M380 -110q0 -42 47 -42q31 0 63 16l25 -56q-46 -30 -108 -30q-52 0 -81 25t-29 69q0 65 62 115h-2q-146 0 -222.5 95t-76.5 280t76.5 280t222.5 95q145 0 222 -95t77 -280q0 -137 -43.5 -224t-132.5 -131q-100 -49 -100 -117zM210.5 148q49.5 -72 146.5 -72t146.5 72
t49.5 214t-49.5 214t-146.5 72t-146.5 -72t-49.5 -214t49.5 -214z" />
    <glyph glyph-name="uni01EB" unicode="&#x1eb;" horiz-adv-x="558" 
d="M308 -46q-25 -30 -25 -64q0 -42 47 -42q31 0 63 16l24 -56q-21 -14 -49 -22t-58 -8q-52 0 -81 25t-29 69q0 65 62 115q-103 5 -157.5 77t-54.5 205q0 139 59.5 211t170.5 72q110 0 169 -72t59 -211q0 -99 -30 -162.5t-92 -94.5q-53 -28 -78 -58zM182.5 123
q32.5 -49 96.5 -49t96.5 49t32.5 146t-32.5 146.5t-95.5 49.5q-64 0 -97 -49.5t-33 -146.5t32.5 -146z" />
    <glyph glyph-name="uni01EC" unicode="&#x1ec;" horiz-adv-x="714" 
d="M508 809h-302v71h302v-71zM380 -110q0 -42 47 -42q31 0 63 16l25 -56q-46 -30 -108 -30q-52 0 -81 25t-29 69q0 65 62 115h-2q-146 0 -222.5 95t-76.5 280t76.5 280t222.5 95q145 0 222 -95t77 -280q0 -137 -43.5 -224t-132.5 -131q-100 -49 -100 -117zM210.5 148
q49.5 -72 146.5 -72t146.5 72t49.5 214t-49.5 214t-146.5 72t-146.5 -72t-49.5 -214t49.5 -214z" />
    <glyph glyph-name="uni01ED" unicode="&#x1ed;" horiz-adv-x="558" 
d="M308 -46q-25 -30 -25 -64q0 -42 47 -42q31 0 63 16l24 -56q-21 -14 -49 -22t-58 -8q-52 0 -81 25t-29 69q0 65 62 115q-103 5 -157.5 77t-54.5 205q0 139 59.5 211t170.5 72q110 0 169 -72t59 -211q0 -99 -30 -162.5t-92 -94.5q-53 -28 -78 -58zM182.5 123
q32.5 -49 96.5 -49t96.5 49t32.5 146t-32.5 146.5t-95.5 49.5q-64 0 -97 -49.5t-33 -146.5t32.5 -146zM129 710h302v-71h-302v71z" />
    <glyph glyph-name="uni01EE" unicode="&#x1ee;" horiz-adv-x="577" 
d="M210 781l-117 133v12h76l93 -87l92 87h73v-12l-117 -133h-100zM529 223q0 -115 -79 -175t-205 -60q-63 0 -123 13.5t-108 40.5l38 80q93 -43 191 -43q88 0 135.5 36.5t47.5 107.5q0 73 -56 103t-163 30h-42v78l199 202h-314v88h435v-90l-198 -201q242 -20 242 -210z" />
    <glyph glyph-name="uni01EF" unicode="&#x1ef;" horiz-adv-x="503" 
d="M403 160q61 -50 61 -150q0 -75 -33.5 -127t-91.5 -77.5t-130 -25.5q-115 0 -189 41l34 76q72 -33 148 -33q77 0 119.5 37.5t42.5 108.5q0 73 -51.5 105t-136.5 32h-46v75l185 234h-275v83h386v-84l-190 -236q106 -9 167 -59zM378 784v-10l-102 -159h-94l-102 159v10h70
l80 -103l81 103h67z" />
    <glyph glyph-name="uni01F0" unicode="&#x1f0;" horiz-adv-x="272" 
d="M-52 -141q56 20 85.5 41.5t41.5 53t12 83.5v502h97v-504q0 -74 -18 -120t-61.5 -77.5t-123.5 -58.5zM285 784v-10l-102 -159h-94l-102 159v10h70l80 -103l81 103h67z" />
    <glyph glyph-name="uni01F1" unicode="&#x1f1;" horiz-adv-x="1205" 
d="M548 632.5q85 -91.5 85 -270.5t-86 -270.5t-248 -91.5h-209v724h212q161 0 246 -91.5zM472 158q58 69 58 204q0 136 -58.5 204.5t-173.5 68.5h-109v-546h111q114 0 172 69zM1162 87v-87h-469v88l352 549h-339v87h451v-87l-352 -550h357z" />
    <glyph glyph-name="uni01F2" unicode="&#x1f2;" horiz-adv-x="1129" 
d="M548 632.5q85 -91.5 85 -270.5t-86 -270.5t-248 -91.5h-209v724h212q161 0 246 -91.5zM472 158q58 69 58 204q0 136 -58.5 204.5t-173.5 68.5h-109v-546h111q114 0 172 69zM1089 82v-82h-389v82l275 375h-266v82h376v-82l-275 -375h279z" />
    <glyph glyph-name="uni01F3" unicode="&#x1f3;" horiz-adv-x="1025" 
d="M491 770v-770h-89v38v34q-53 -85 -153 -85q-94 0 -146.5 75t-52.5 209q0 133 54.5 207t152.5 74q42 0 77.5 -16t59.5 -45v279h97zM339.5 92.5q28.5 13.5 54.5 43.5v272q-23 27 -55 41.5t-67 14.5q-61 0 -91.5 -48t-30.5 -143q0 -194 128 -194q33 0 61.5 13.5zM985 82v-82
h-389v82l275 375h-266v82h376v-82l-275 -375h279z" />
    <glyph glyph-name="uni01F4" unicode="&#x1f4;" horiz-adv-x="668" 
d="M373 781h-84v12l150 133h116v-12zM598 392v-352q-39 -25 -94 -39t-116 -14q-157 0 -243.5 98.5t-86.5 276.5t86.5 276.5t243.5 98.5q56 0 108 -13.5t89 -36.5l-30 -81q-90 42 -169 42q-112 0 -168.5 -72t-56.5 -214t57 -214t170 -72q60 0 111 16v212h-128v88h227z" />
    <glyph glyph-name="uni01F5" unicode="&#x1f5;" horiz-adv-x="579" 
d="M494 539v-533q0 -107 -63 -166.5t-176 -59.5q-43 0 -85 9t-74 25l29 82q60 -29 124 -29q148 0 148 139v84q-53 -73 -146 -73q-95 0 -148 71t-53 198q0 126 55 196t154 70q46 0 83.5 -18.5t62.5 -53.5v59h89zM342.5 122.5q28.5 13.5 54.5 43.5v242q-24 27 -56 41.5
t-67 14.5q-124 0 -124 -176q0 -89 33 -134t97 -45q34 0 62.5 13.5zM227 625l99 159h107v-10l-132 -159h-74v10z" />
    <glyph glyph-name="uni01F6" unicode="&#x1f6;" horiz-adv-x="1015" 
d="M930 276q0 -140 -56.5 -214.5t-162.5 -74.5q-93 0 -146 52.5t-53 145.5v138h-323v-323h-99v724h99v-312h323v312h99v-522q0 -128 102 -128q61 0 89.5 49t28.5 152q0 79 -7.5 137t-25.5 127h99q33 -124 33 -263z" />
    <glyph glyph-name="uni01F7" unicode="&#x1f7;" horiz-adv-x="577" 
d="M505 678q52 -59 52 -164q0 -72 -24 -128t-76 -107.5t-142 -112.5l-126 -85v-288h-99v931h96v-69q33 39 79 60.5t97 21.5q91 0 143 -59zM392.5 341.5q34.5 37.5 48 75t13.5 84.5q0 73 -29 108.5t-88 35.5q-38 0 -76.5 -18t-71.5 -51v-387l105 71q64 44 98.5 81.5z" />
    <glyph glyph-name="uni01F8" unicode="&#x1f8;" horiz-adv-x="724" 
d="M348 781l-173 133v12h117l140 -133v-12h-84zM633 724v-724h-94l-352 556v-556h-97v724h94l352 -555v555h97z" />
    <glyph glyph-name="uni01F9" unicode="&#x1f9;" horiz-adv-x="583" 
d="M459.5 506.5q43.5 -45.5 43.5 -127.5v-379h-97v368q0 92 -100 92q-35 0 -64.5 -11.5t-59.5 -35.5v-413h-97v539h89v-62q66 75 164 75q78 0 121.5 -45.5zM160 774v10h106l92 -159v-10h-74z" />
    <glyph glyph-name="Aringacute" unicode="&#x1fa;" horiz-adv-x="668" 
d="M355 909h-85v12l140 125h117v-12zM477 182h-288l-59 -182h-105l235 669q-51 28 -51 94q0 53 32.5 82.5t91.5 29.5t91.5 -29.5t32.5 -82.5q0 -32 -12.5 -56.5t-36.5 -37.5l234 -669h-106zM275 763q0 -58 58 -58t58 58t-58 58t-58 -58zM448 269l-116 355l-115 -355h231z
" />
    <glyph glyph-name="aringacute" unicode="&#x1fb;" horiz-adv-x="531" 
d="M284 862h-64v10l78 127h88v-10zM163.5 631.5q-32.5 29.5 -32.5 82.5q0 52 32.5 81.5t90.5 29.5t90.5 -29.5t32.5 -81.5q0 -53 -32.5 -82.5t-90.5 -29.5t-90.5 29.5zM196 714q0 -59 58 -59t58 59t-58 59t-58 -59zM399.5 507.5q53.5 -44.5 53.5 -128.5v-379h-88v71
q-52 -82 -161 -82q-79 0 -122.5 42t-43.5 119q0 96 77 141.5t242 46.5v31q0 46 -30 70t-88 24q-66 0 -126 -28l-25 78q79 39 166 39q92 0 145.5 -44.5zM357 134v133q-117 -2 -171 -28t-54 -82q0 -41 24 -62t71 -21q75 0 130 60z" />
    <glyph glyph-name="AEacute" unicode="&#x1fc;" horiz-adv-x="911" 
d="M500 781h-84v12l150 133h116v-12zM872 89v-89h-429v173h-249l-91 -173h-107l384 724h100h379v-89h-320v-220h235v-90h-235v-236h333zM443 260v392l-204 -392h204z" />
    <glyph glyph-name="aeacute" unicode="&#x1fd;" horiz-adv-x="828" 
d="M780 241h-339q6 -81 44 -122.5t108 -41.5q67 0 131 38l36 -75q-34 -25 -80 -38.5t-95 -13.5q-66 0 -115.5 25.5t-79.5 74.5q-41 -51 -87.5 -75t-103.5 -24q-76 0 -118.5 42t-42.5 118q0 93 75 137t235 45v38q0 94 -113 94q-63 0 -122 -28l-25 78q79 39 162 39
q56 0 96 -20t62 -58q25 38 66 58t93 20q103 0 160 -68.5t57 -191.5q0 -32 -4 -51zM480 427.5q-31 -38.5 -38 -113.5h245q-2 72 -33.5 112t-88.5 40q-54 0 -85 -38.5zM362 151q-14 46 -16 109q-110 -2 -162 -27t-52 -77q0 -82 91 -82q79 0 139 77zM366 625l99 159h107v-10
l-132 -159h-74v10z" />
    <glyph glyph-name="Oslashacute" unicode="&#x1fe;" horiz-adv-x="714" 
d="M370 781h-84v12l150 133h116v-12zM686 723l-88 -110q58 -95 58 -251q0 -185 -77 -280t-222 -95q-123 0 -196 69l-50 -66h-83v11l88 110q-58 95 -58 251q0 185 76.5 280t222.5 95q121 0 195 -69l50 66h84v-11zM208 578q-50 -73 -50 -216q0 -106 23 -169l315 403
q-48 55 -139 55q-99 0 -149 -73zM505.5 146q50.5 73 50.5 216q0 102 -23 169l-316 -403q48 -55 140 -55q98 0 148.5 73z" />
    <glyph glyph-name="oslashacute" unicode="&#x1ff;" horiz-adv-x="558" 
d="M538 539l-71 -87q41 -70 41 -183q0 -138 -59.5 -210t-169.5 -72q-88 0 -145 48l-34 -45h-80v10l72 87q-42 69 -42 182q0 139 59.5 211t170.5 72q87 0 144 -49l34 46h80v-10zM180 418q-34 -50 -34 -149q0 -57 11 -101l213 266q-33 34 -90 34q-66 0 -100 -50zM378.5 120.5
q33.5 50.5 33.5 148.5q0 58 -11 102l-212 -266q31 -35 90 -35q66 0 99.5 50.5zM223 625l99 159h107v-10l-132 -159h-74v10z" />
    <glyph glyph-name="uni0200" unicode="&#x200;" horiz-adv-x="668" 
d="M239 781l-120 133v12h100l89 -133v-12h-69zM401 781l-120 133v12h99l89 -133v-12h-68zM477 182h-288l-59 -182h-105l254 724h110l253 -724h-106zM448 269l-116 355l-115 -355h231z" />
    <glyph glyph-name="uni0201" unicode="&#x201;" horiz-adv-x="531" 
d="M399.5 507.5q53.5 -44.5 53.5 -128.5v-379h-88v71q-52 -82 -161 -82q-79 0 -122.5 42t-43.5 119q0 96 77 141.5t242 46.5v31q0 46 -30 70t-88 24q-66 0 -126 -28l-25 78q79 39 166 39q92 0 145.5 -44.5zM357 134v133q-117 -2 -171 -28t-54 -82q0 -41 24 -62t71 -21
q75 0 130 60zM166 615l-83 159v10h94l52 -159v-10h-63zM312 615l-82 159v10h94l51 -159v-10h-63z" />
    <glyph glyph-name="uni0202" unicode="&#x202;" horiz-adv-x="668" 
d="M244 791h-59q3 74 42 114.5t107 40.5t107 -40.5t42 -114.5h-62q-12 79 -88 79q-77 0 -89 -79zM477 182h-288l-59 -182h-105l254 724h110l253 -724h-106zM448 269l-116 355l-115 -355h231z" />
    <glyph glyph-name="uni0203" unicode="&#x203;" horiz-adv-x="531" 
d="M399.5 507.5q53.5 -44.5 53.5 -128.5v-379h-88v71q-52 -82 -161 -82q-79 0 -122.5 42t-43.5 119q0 96 77 141.5t242 46.5v31q0 46 -30 70t-88 24q-66 0 -126 -28l-25 78q79 39 166 39q92 0 145.5 -44.5zM357 134v133q-117 -2 -171 -28t-54 -82q0 -41 24 -62t71 -21
q75 0 130 60zM361 735.5q39 -40.5 42 -114.5h-62q-12 79 -88 79q-77 0 -89 -79h-59q3 74 42 114.5t107 40.5t107 -40.5z" />
    <glyph glyph-name="uni0204" unicode="&#x204;" horiz-adv-x="576" 
d="M215 781l-120 133v12h100l89 -133v-12h-69zM377 781l-120 133v12h99l89 -133v-12h-68zM536 89v-89h-446v724h433v-89h-334v-220h249v-90h-249v-236h347z" />
    <glyph glyph-name="uni0205" unicode="&#x205;" horiz-adv-x="541" 
d="M493 241h-347q12 -164 156 -164q72 0 136 38l35 -75q-34 -25 -81 -38.5t-98 -13.5q-117 0 -181.5 74t-64.5 207q0 134 60 208.5t168 74.5q105 0 163 -68.5t58 -191.5q0 -31 -4 -51zM186 427.5q-32 -38.5 -39 -113.5h253q-1 72 -34 112t-92 40q-56 0 -88 -38.5zM188 615
l-83 159v10h94l52 -159v-10h-63zM334 615l-82 159v10h94l51 -159v-10h-63z" />
    <glyph glyph-name="uni0206" unicode="&#x206;" horiz-adv-x="576" 
d="M220 791h-59q3 74 42 114.5t107 40.5t107 -40.5t42 -114.5h-62q-12 79 -88 79q-77 0 -89 -79zM536 89v-89h-446v724h433v-89h-334v-220h249v-90h-249v-236h347z" />
    <glyph glyph-name="uni0207" unicode="&#x207;" horiz-adv-x="541" 
d="M493 241h-347q12 -164 156 -164q72 0 136 38l35 -75q-34 -25 -81 -38.5t-98 -13.5q-117 0 -181.5 74t-64.5 207q0 134 60 208.5t168 74.5q105 0 163 -68.5t58 -191.5q0 -31 -4 -51zM186 427.5q-32 -38.5 -39 -113.5h253q-1 72 -34 112t-92 40q-56 0 -88 -38.5zM383 735.5
q39 -40.5 42 -114.5h-62q-12 79 -88 79q-77 0 -89 -79h-59q3 74 42 114.5t107 40.5t107 -40.5z" />
    <glyph glyph-name="uni0208" unicode="&#x208;" horiz-adv-x="283" 
d="M47 781l-120 133v12h100l89 -133v-12h-69zM209 781l-120 133v12h99l89 -133v-12h-68zM92 724h99v-724h-99v724z" />
    <glyph glyph-name="uni0209" unicode="&#x209;" horiz-adv-x="272" 
d="M87 539h97v-539h-97v539zM48 615l-83 159v10h94l52 -159v-10h-63zM194 615l-82 159v10h94l51 -159v-10h-63z" />
    <glyph glyph-name="uni020A" unicode="&#x20a;" horiz-adv-x="283" 
d="M249 905.5q39 -40.5 42 -114.5h-62q-12 79 -88 79q-77 0 -89 -79h-59q3 74 42 114.5t107 40.5t107 -40.5zM92 724h99v-724h-99v724z" />
    <glyph glyph-name="uni020B" unicode="&#x20b;" horiz-adv-x="272" 
d="M87 539h97v-539h-97v539zM243 735.5q39 -40.5 42 -114.5h-62q-12 79 -88 79q-77 0 -89 -79h-59q3 74 42 114.5t107 40.5t107 -40.5z" />
    <glyph glyph-name="uni020C" unicode="&#x20c;" horiz-adv-x="714" 
d="M262 781l-120 133v12h100l89 -133v-12h-69zM424 781l-120 133v12h99l89 -133v-12h-68zM134.5 82q-76.5 95 -76.5 280t76.5 280t222.5 95q145 0 222 -95t77 -280t-77 -280t-222 -95q-146 0 -222.5 95zM503.5 148q49.5 72 49.5 214t-49.5 214t-146.5 72t-146.5 -72
t-49.5 -214t49.5 -214t146.5 -72t146.5 72z" />
    <glyph glyph-name="uni020D" unicode="&#x20d;" horiz-adv-x="558" 
d="M109 58.5q-59 71.5 -59 210.5t59.5 211t170.5 72q110 0 169 -72t59 -211q0 -138 -59.5 -210t-169.5 -72q-111 0 -170 71.5zM375.5 123q32.5 49 32.5 146t-32.5 146.5t-95.5 49.5q-64 0 -97 -49.5t-33 -146.5t32.5 -146t96.5 -49t96.5 49zM192 615l-83 159v10h94l52 -159
v-10h-63zM338 615l-82 159v10h94l51 -159v-10h-63z" />
    <glyph glyph-name="uni020E" unicode="&#x20e;" horiz-adv-x="714" 
d="M464 905.5q39 -40.5 42 -114.5h-62q-12 79 -88 79q-77 0 -89 -79h-59q3 74 42 114.5t107 40.5t107 -40.5zM134.5 82q-76.5 95 -76.5 280t76.5 280t222.5 95q145 0 222 -95t77 -280t-77 -280t-222 -95q-146 0 -222.5 95zM503.5 148q49.5 72 49.5 214t-49.5 214t-146.5 72
t-146.5 -72t-49.5 -214t49.5 -214t146.5 -72t146.5 72z" />
    <glyph glyph-name="uni020F" unicode="&#x20f;" horiz-adv-x="558" 
d="M109 58.5q-59 71.5 -59 210.5t59.5 211t170.5 72q110 0 169 -72t59 -211q0 -138 -59.5 -210t-169.5 -72q-111 0 -170 71.5zM375.5 123q32.5 49 32.5 146t-32.5 146.5t-95.5 49.5q-64 0 -97 -49.5t-33 -146.5t32.5 -146t96.5 -49t96.5 49zM387 735.5q39 -40.5 42 -114.5
h-62q-12 79 -88 79q-77 0 -89 -79h-59q3 74 42 114.5t107 40.5t107 -40.5z" />
    <glyph glyph-name="uni0210" unicode="&#x210;" horiz-adv-x="633" 
d="M222 781l-120 133v12h100l89 -133v-12h-69zM384 781l-120 133v12h99l89 -133v-12h-68zM313 269h-124v-269h-99v724h99h148q108 0 168.5 -60t60.5 -167q0 -84 -38.5 -140.5t-110.5 -76.5l187 -280h-120zM189 356h148q126 0 126 140q0 69 -33 104.5t-97 35.5h-144v-280z
" />
    <glyph glyph-name="uni0211" unicode="&#x211;" horiz-adv-x="401" 
d="M383 537l-21 -93q-37 10 -68 10q-37 0 -64 -15t-48 -46v-393h-97v539h89v-79q55 90 144 90q35 0 65 -13zM145 615l-83 159v10h94l52 -159v-10h-63zM291 615l-82 159v10h94l51 -159v-10h-63z" />
    <glyph glyph-name="uni0212" unicode="&#x212;" horiz-adv-x="633" 
d="M227 791h-59q3 74 42 114.5t107 40.5t107 -40.5t42 -114.5h-62q-12 79 -88 79q-77 0 -89 -79zM313 269h-124v-269h-99v724h99h148q108 0 168.5 -60t60.5 -167q0 -84 -38.5 -140.5t-110.5 -76.5l187 -280h-120zM189 356h148q126 0 126 140q0 69 -33 104.5t-97 35.5h-144
v-280z" />
    <glyph glyph-name="uni0213" unicode="&#x213;" horiz-adv-x="401" 
d="M383 537l-21 -93q-37 10 -68 10q-37 0 -64 -15t-48 -46v-393h-97v539h89v-79q55 90 144 90q35 0 65 -13zM340 735.5q39 -40.5 42 -114.5h-62q-12 79 -88 79q-77 0 -89 -79h-59q3 74 42 114.5t107 40.5t107 -40.5z" />
    <glyph glyph-name="uni0214" unicode="&#x214;" horiz-adv-x="686" 
d="M248 781l-120 133v12h100l89 -133v-12h-69zM410 781l-120 133v12h99l89 -133v-12h-68zM152.5 57q-67.5 70 -67.5 197v470h99v-466q0 -90 40 -136t118 -46q159 0 159 182v466h99v-470q0 -127 -68 -197t-190 -70t-189.5 70z" />
    <glyph glyph-name="uni0215" unicode="&#x215;" horiz-adv-x="575" 
d="M490 539v-539h-89v69q-59 -82 -161 -82q-77 0 -119.5 45.5t-42.5 127.5v379h97v-368q0 -92 97 -92q36 0 65 13t56 42v405h97zM197 615l-83 159v10h94l52 -159v-10h-63zM343 615l-82 159v10h94l51 -159v-10h-63z" />
    <glyph glyph-name="uni0216" unicode="&#x216;" horiz-adv-x="686" 
d="M450 905.5q39 -40.5 42 -114.5h-62q-12 79 -88 79q-77 0 -89 -79h-59q3 74 42 114.5t107 40.5t107 -40.5zM152.5 57q-67.5 70 -67.5 197v470h99v-466q0 -90 40 -136t118 -46q159 0 159 182v466h99v-470q0 -127 -68 -197t-190 -70t-189.5 70z" />
    <glyph glyph-name="uni0217" unicode="&#x217;" horiz-adv-x="575" 
d="M490 539v-539h-89v69q-59 -82 -161 -82q-77 0 -119.5 45.5t-42.5 127.5v379h97v-368q0 -92 97 -92q36 0 65 13t56 42v405h97zM392 735.5q39 -40.5 42 -114.5h-62q-12 79 -88 79q-77 0 -89 -79h-59q3 74 42 114.5t107 40.5t107 -40.5z" />
    <glyph glyph-name="Scommaaccent" unicode="&#x218;" horiz-adv-x="562" 
d="M145 4q-60 16 -106 45l34 81q96 -54 194 -54q72 0 110.5 29.5t38.5 82.5q0 45 -26.5 73.5t-82.5 43.5l-82 23q-93 25 -135.5 73t-42.5 127q0 97 62.5 152.5t170.5 55.5q53 0 109.5 -12t104.5 -34l-33 -82q-103 40 -183 40q-64 0 -98.5 -27.5t-34.5 -77.5q0 -45 26.5 -73
t82.5 -43l82 -23q92 -26 134.5 -74t42.5 -127q0 -100 -65.5 -157.5t-180.5 -57.5q-62 0 -122 16zM187 -238q26 28 36 55t10 67q0 7 -3 40h92q3 -17 3 -39q0 -46 -24 -84t-78 -79z" />
    <glyph glyph-name="scommaaccent" unicode="&#x219;" horiz-adv-x="466" 
d="M119.5 1q-49.5 13 -86.5 37l35 81q73 -45 154 -45q107 0 107 73q0 29 -17.5 46.5t-56.5 26.5l-71 17q-74 17 -108.5 53.5t-34.5 97.5q0 77 51 120t143 43q46 0 91.5 -11t82.5 -31l-37 -80q-74 36 -139 36q-48 0 -72.5 -17.5t-24.5 -50.5q0 -27 18 -44t56 -26l71 -17
q74 -17 108.5 -54.5t34.5 -99.5q0 -79 -53.5 -123.5t-148.5 -44.5q-53 0 -102.5 13zM140 -238q26 28 36 55t10 67q0 7 -3 40h92q3 -17 3 -39q0 -46 -24 -84t-78 -79z" />
    <glyph glyph-name="uni021A" unicode="&#x21a;" horiz-adv-x="528" 
d="M502 634h-189v-634h-99v634h-188v90h287h189v-90zM174 -238q26 28 36 55t10 67q0 7 -3 40h92q3 -17 3 -39q0 -46 -24 -84t-78 -79z" />
    <glyph glyph-name="uni021B" unicode="&#x21b;" horiz-adv-x="391" 
d="M106 169v287h-89v83h90v155h96v-155h157v-83h-157v-271q0 -55 22.5 -80.5t69.5 -25.5q28 0 56 9l16 -83q-40 -12 -87 -12q-174 0 -174 176zM138 -238q26 28 36 55t10 67q0 7 -3 40h92q3 -17 3 -39q0 -46 -24 -84t-78 -79z" />
    <glyph glyph-name="uni021C" unicode="&#x21c;" horiz-adv-x="509" 
d="M432.5 309q35.5 -52 35.5 -120q0 -131 -111.5 -200t-328.5 -103l-16 88q118 19 194.5 44.5t117.5 67.5t41 106q0 104 -108 151q-62 -32 -146 -62l-28 77q96 37 148 68t72.5 61t20.5 67q0 47 -31.5 71t-83.5 24q-44 0 -79.5 -10t-79.5 -31l-34 80q91 49 204 49
q94 0 150 -44.5t56 -127.5q0 -52 -21.5 -94.5t-70.5 -79.5q63 -30 98.5 -82z" />
    <glyph glyph-name="uni021D" unicode="&#x21d;" horiz-adv-x="471" 
d="M397 160q32 -46 32 -106q0 -116 -100 -178.5t-293 -92.5l-15 83q155 25 231 68.5t76 125.5q0 94 -85 133q-51 -29 -132 -58l-26 74q85 32 130 60t61.5 55t16.5 61q0 43 -26.5 63.5t-73.5 20.5q-34 0 -67 -9.5t-70 -28.5l-30 78q37 20 82.5 31.5t93.5 11.5q86 0 138.5 -41
t52.5 -116q0 -48 -20.5 -87t-64.5 -74q57 -28 89 -74z" />
    <glyph glyph-name="uni021E" unicode="&#x21e;" horiz-adv-x="702" 
d="M301 781l-117 133v12h76l93 -87l92 87h73v-12l-117 -133h-100zM611 724v-724h-99v323h-323v-323h-99v724h99v-312h323v312h99z" />
    <glyph glyph-name="uni021F" unicode="&#x21f;" horiz-adv-x="585" 
d="M184 827h-100l-117 133v12h76l93 -87l92 87h73v-12zM461.5 506.5q43.5 -45.5 43.5 -127.5v-379h-97v368q0 92 -101 92q-35 0 -65.5 -11.5t-59.5 -35.5v-413h-97v770h97v-284q66 66 157 66q79 0 122.5 -45.5z" />
    <glyph glyph-name="uni0220" unicode="&#x220;" horiz-adv-x="683" 
d="M542 677q55 -60 55 -165v-642h-99v646q0 62 -35.5 95t-101.5 33q-49 0 -90.5 -15.5t-81.5 -49.5v-579h-99v724h96v-74q80 87 202 87q99 0 154 -60z" />
    <glyph glyph-name="uni0221" unicode="&#x221;" horiz-adv-x="577" 
d="M626.5 -20q32.5 -30 32.5 -85q0 -56 -34 -86.5t-95 -30.5q-55 0 -88.5 26t-40.5 73l-18 -17l-67 -64l-45 50l70 66q29 26 55 46v105q-53 -76 -147 -76t-146.5 75t-52.5 209q0 133 54.5 207t152.5 74q42 0 77.5 -16t59.5 -45v279h97v-765q19 5 45 5q58 0 90.5 -30z
M339.5 92.5q28.5 13.5 54.5 43.5v272q-23 27 -55 41.5t-67 14.5q-61 0 -91.5 -48t-30.5 -143q0 -194 128 -194q33 0 61.5 13.5zM577 -104q0 47 -47 47q-21 0 -42 -9v-31q0 -53 46 -53q43 0 43 46z" />
    <glyph glyph-name="uni0222" unicode="&#x222;" horiz-adv-x="647" 
d="M564.5 304q33.5 -47 33.5 -111q0 -98 -72 -152t-202 -54t-202 54t-72 152q0 64 33 111t95 71q-54 22 -83 65.5t-29 101.5q0 73 44.5 124t124.5 71l32 -79q-52 -19 -75.5 -48.5t-23.5 -71.5q0 -55 38 -87.5t117 -32.5t118 33t39 87q0 42 -24 71t-77 49l33 79
q81 -20 125.5 -71t44.5 -124q0 -58 -29.5 -101t-83.5 -66q62 -24 95.5 -71zM452.5 109.5q42.5 33.5 42.5 92.5t-43 93t-128 34q-86 0 -128.5 -34t-42.5 -93t42.5 -92.5t128.5 -33.5t128.5 33.5z" />
    <glyph glyph-name="uni0223" unicode="&#x223;" horiz-adv-x="593" 
d="M511 323.5q32 -50.5 32 -118.5q0 -103 -65 -160.5t-181 -57.5q-117 0 -182 57.5t-65 160.5q0 68 32 118.5t91 74.5q-50 24 -78 70.5t-28 107.5q0 67 35 120t97 80l45 -72q-77 -36 -77 -128q0 -67 33 -101t97 -34q63 0 96 34t33 101q0 92 -77 128l45 72q62 -27 97 -80
t35 -120q0 -61 -28 -107.5t-78 -70.5q59 -24 91 -74.5zM406 109q37 35 37 105q0 139 -146 139q-147 0 -147 -139q0 -140 147 -140q72 0 109 35z" />
    <glyph glyph-name="uni0224" unicode="&#x224;" horiz-adv-x="553" 
d="M485.5 45.5q42.5 -41.5 42.5 -117.5q0 -25 -4 -41h-90q3 27 3 42q0 71 -71 71h-15h-310v88l352 549h-339v87h451v-87l-352 -550h213q77 0 119.5 -41.5z" />
    <glyph glyph-name="uni0225" unicode="&#x225;" horiz-adv-x="464" 
d="M416.5 38q40.5 -42 40.5 -116q0 -24 -4 -40h-90q3 25 3 41q0 77 -71 77h-257v82l275 375h-266v82h376v-82l-275 -375h154q74 -2 114.5 -44z" />
    <glyph glyph-name="uni0226" unicode="&#x226;" horiz-adv-x="668" 
d="M287.5 807.5q-16.5 16.5 -16.5 45.5q0 30 16.5 46.5t46.5 16.5t46.5 -16.5t16.5 -45.5q0 -30 -16.5 -46.5t-46.5 -16.5t-46.5 16.5zM477 182h-288l-59 -182h-105l254 724h110l253 -724h-106zM448 269l-116 355l-115 -355h231z" />
    <glyph glyph-name="uni0227" unicode="&#x227;" horiz-adv-x="531" 
d="M399.5 507.5q53.5 -44.5 53.5 -128.5v-379h-88v71q-52 -82 -161 -82q-79 0 -122.5 42t-43.5 119q0 96 77 141.5t242 46.5v31q0 46 -30 70t-88 24q-66 0 -126 -28l-25 78q79 39 166 39q92 0 145.5 -44.5zM357 134v133q-117 -2 -171 -28t-54 -82q0 -41 24 -62t71 -21
q75 0 130 60zM207.5 641.5q-16.5 16.5 -16.5 45.5q0 30 16.5 46.5t46.5 16.5t46.5 -16.5t16.5 -45.5q0 -30 -16.5 -46.5t-46.5 -16.5t-46.5 16.5z" />
    <glyph glyph-name="uni0228" unicode="&#x228;" horiz-adv-x="576" 
d="M346 0l-40 -58q14 2 21 2q50 0 78.5 -21.5t28.5 -60.5q0 -45 -32.5 -69.5t-91.5 -24.5q-60 0 -108 24l18 51q51 -18 84 -18q52 0 52 36q0 35 -47 35q-21 0 -43 -8l-24 28l36 84h-188v724h433v-89h-334v-220h249v-90h-249v-236h347v-89h-190z" />
    <glyph glyph-name="uni0229" unicode="&#x229;" horiz-adv-x="541" 
d="M493 241h-347q12 -164 156 -164q72 0 136 38l35 -75q-33 -24 -78 -37.5t-94 -14.5l-32 -46q14 2 21 2q50 0 78.5 -21.5t28.5 -60.5q0 -45 -32.5 -69.5t-91.5 -24.5q-60 0 -108 24l18 51q51 -18 84 -18q52 0 52 36q0 35 -47 35q-21 0 -43 -8l-24 28l33 77
q-91 17 -140.5 89t-49.5 187q0 134 60 208.5t168 74.5q105 0 163 -68.5t58 -191.5q0 -31 -4 -51zM186 427.5q-32 -38.5 -39 -113.5h253q-1 72 -34 112t-92 40q-56 0 -88 -38.5z" />
    <glyph glyph-name="uni022A" unicode="&#x22a;" horiz-adv-x="714" 
d="M206 1031h302v-71h-302v71zM214.5 804q-15.5 16 -15.5 43q0 28 15.5 44t43.5 16q27 0 42.5 -16t15.5 -43q0 -29 -15 -44.5t-43 -15.5t-43.5 16zM413.5 804q-15.5 16 -15.5 43q0 28 15.5 44t43.5 16q27 0 42.5 -16t15.5 -43q0 -29 -15 -44.5t-43 -15.5t-43.5 16zM134.5 82
q-76.5 95 -76.5 280t76.5 280t222.5 95q145 0 222 -95t77 -280t-77 -280t-222 -95q-146 0 -222.5 95zM503.5 148q49.5 72 49.5 214t-49.5 214t-146.5 72t-146.5 -72t-49.5 -214t49.5 -214t146.5 -72t146.5 72z" />
    <glyph glyph-name="uni022B" unicode="&#x22b;" horiz-adv-x="558" 
d="M129 862h302v-71h-302v71zM142.5 639q-15.5 16 -15.5 43q0 28 15.5 44t43.5 16q27 0 42.5 -16t15.5 -43q0 -29 -15 -44.5t-43 -15.5t-43.5 16zM331.5 639q-15.5 16 -15.5 43q0 28 15.5 44t43.5 16q27 0 42.5 -16t15.5 -43q0 -29 -15 -44.5t-43 -15.5t-43.5 16zM109 58.5
q-59 71.5 -59 210.5t59.5 211t170.5 72q110 0 169 -72t59 -211q0 -138 -59.5 -210t-169.5 -72q-111 0 -170 71.5zM375.5 123q32.5 49 32.5 146t-32.5 146.5t-95.5 49.5q-64 0 -97 -49.5t-33 -146.5t32.5 -146t96.5 -49t96.5 49z" />
    <glyph glyph-name="uni022C" unicode="&#x22c;" horiz-adv-x="714" 
d="M206 1035h302v-71h-302v71zM374.5 816q-16.5 8 -33.5 23q-13 11 -23 16.5t-23 5.5q-37 0 -42 -51h-51q0 54 25 84t71 30q25 0 41.5 -8t33.5 -23q13 -11 23 -16.5t23 -5.5q37 0 42 51h51q0 -54 -25 -84t-71 -30q-25 0 -41.5 8zM134.5 82q-76.5 95 -76.5 280t76.5 280
t222.5 95q145 0 222 -95t77 -280t-77 -280t-222 -95q-146 0 -222.5 95zM503.5 148q49.5 72 49.5 214t-49.5 214t-146.5 72t-146.5 -72t-49.5 -214t49.5 -214t146.5 -72t146.5 72z" />
    <glyph glyph-name="uni022D" unicode="&#x22d;" horiz-adv-x="558" 
d="M109 58.5q-59 71.5 -59 210.5t59.5 211t170.5 72q110 0 169 -72t59 -211q0 -138 -59.5 -210t-169.5 -72q-111 0 -170 71.5zM375.5 123q32.5 49 32.5 146t-32.5 146.5t-95.5 49.5q-64 0 -97 -49.5t-33 -146.5t32.5 -146t96.5 -49t96.5 49zM304.5 628q-19.5 10 -44.5 28
q-18 13 -29 19t-23 6q-34 0 -41 -61h-59q2 63 28.5 99t73.5 36q26 0 45.5 -10t44.5 -28q18 -13 29 -19t23 -6q34 0 41 61h59q-2 -63 -28.5 -99t-73.5 -36q-26 0 -45.5 10zM129 889h302v-71h-302v71z" />
    <glyph glyph-name="uni022E" unicode="&#x22e;" horiz-adv-x="714" 
d="M310.5 807.5q-16.5 16.5 -16.5 45.5q0 30 16.5 46.5t46.5 16.5t46.5 -16.5t16.5 -45.5q0 -30 -16.5 -46.5t-46.5 -16.5t-46.5 16.5zM134.5 82q-76.5 95 -76.5 280t76.5 280t222.5 95q145 0 222 -95t77 -280t-77 -280t-222 -95q-146 0 -222.5 95zM503.5 148
q49.5 72 49.5 214t-49.5 214t-146.5 72t-146.5 -72t-49.5 -214t49.5 -214t146.5 -72t146.5 72z" />
    <glyph glyph-name="uni022F" unicode="&#x22f;" horiz-adv-x="558" 
d="M109 58.5q-59 71.5 -59 210.5t59.5 211t170.5 72q110 0 169 -72t59 -211q0 -138 -59.5 -210t-169.5 -72q-111 0 -170 71.5zM375.5 123q32.5 49 32.5 146t-32.5 146.5t-95.5 49.5q-64 0 -97 -49.5t-33 -146.5t32.5 -146t96.5 -49t96.5 49zM233.5 641.5
q-16.5 16.5 -16.5 45.5q0 30 16.5 46.5t46.5 16.5t46.5 -16.5t16.5 -45.5q0 -30 -16.5 -46.5t-46.5 -16.5t-46.5 16.5z" />
    <glyph glyph-name="uni0230" unicode="&#x230;" horiz-adv-x="714" 
d="M206 1031h302v-71h-302v71zM310.5 807.5q-16.5 16.5 -16.5 45.5q0 30 16.5 46.5t46.5 16.5t46.5 -16.5t16.5 -45.5q0 -30 -16.5 -46.5t-46.5 -16.5t-46.5 16.5zM134.5 82q-76.5 95 -76.5 280t76.5 280t222.5 95q145 0 222 -95t77 -280t-77 -280t-222 -95
q-146 0 -222.5 95zM503.5 148q49.5 72 49.5 214t-49.5 214t-146.5 72t-146.5 -72t-49.5 -214t49.5 -214t146.5 -72t146.5 72z" />
    <glyph glyph-name="uni0231" unicode="&#x231;" horiz-adv-x="558" 
d="M109 58.5q-59 71.5 -59 210.5t59.5 211t170.5 72q110 0 169 -72t59 -211q0 -138 -59.5 -210t-169.5 -72q-111 0 -170 71.5zM375.5 123q32.5 49 32.5 146t-32.5 146.5t-95.5 49.5q-64 0 -97 -49.5t-33 -146.5t32.5 -146t96.5 -49t96.5 49zM233.5 641.5
q-16.5 16.5 -16.5 45.5q0 30 16.5 46.5t46.5 16.5t46.5 -16.5t16.5 -45.5q0 -30 -16.5 -46.5t-46.5 -16.5t-46.5 16.5zM129 866h302v-71h-302v71z" />
    <glyph glyph-name="uni0232" unicode="&#x232;" horiz-adv-x="588" 
d="M444 809h-302v71h302v-71zM566 724l-224 -472v-252h-99v252l-222 472h108l166 -362l164 362h107z" />
    <glyph glyph-name="uni0233" unicode="&#x233;" horiz-adv-x="518" 
d="M493 539l-180 -532q-27 -81 -89 -136.5t-162 -89.5l-34 83q71 25 114 56.5t68 76.5l-185 542h102l133 -431l133 431h100zM110 710h302v-71h-302v71z" />
    <glyph glyph-name="uni0234" unicode="&#x234;" horiz-adv-x="266" 
d="M317 -19q32 -30 32 -85q0 -56 -34 -86.5t-95 -30.5q-55 0 -88.5 26t-39.5 73l-19 -17l-67 -64l-45 50l71 66q24 23 53 45v812h97v-668v-96q19 5 44 5q59 0 91 -30zM267 -103q0 47 -47 47q-19 0 -41 -8v-32q0 -53 45 -53q43 0 43 46z" />
    <glyph glyph-name="uni0235" unicode="&#x235;" horiz-adv-x="679" 
d="M636.5 185q32.5 -30 32.5 -85q0 -56 -34 -86.5t-95 -30.5q-55 0 -88.5 26t-40.5 73l-18 -17l-67 -64l-45 50l70 66q29 26 55 46v7v198q0 92 -100 92q-35 0 -64.5 -11.5t-59.5 -35.5v-413h-97v539h89v-62q66 75 164 75q78 0 121.5 -45.5t43.5 -127.5v-169q18 5 43 5
q58 0 90.5 -30zM587 101q0 47 -47 47q-21 0 -42 -9v-31q0 -53 46 -53q43 0 43 46z" />
    <glyph glyph-name="uni0236" unicode="&#x236;" horiz-adv-x="399" 
d="M343 185q32 -30 32 -85q0 -56 -34 -86.5t-95 -30.5q-55 0 -88.5 26t-40.5 73l-18 -17l-67 -64l-45 50l70 66q14 14 53 45v294h-89v83h90v155h96v-155h157v-83h-157v-246q19 5 45 5q59 0 91 -30zM293 101q0 47 -47 47q-21 0 -42 -9v-31q0 -53 46 -53q43 0 43 46z" />
    <glyph glyph-name="uni0237" unicode="&#x237;" horiz-adv-x="272" 
d="M-52 -141q56 20 85.5 41.5t41.5 53t12 83.5v502h97v-504q0 -74 -18 -120t-61.5 -77.5t-123.5 -58.5z" />
    <glyph glyph-name="uni0238" unicode="&#x238;" horiz-adv-x="886" 
d="M783.5 477q52.5 -75 52.5 -210q0 -132 -54.5 -206t-152.5 -74q-46 0 -83.5 18.5t-62.5 52.5v-58h-81v72q-53 -85 -153 -85q-94 0 -146.5 75t-52.5 209q0 133 54.5 207t152.5 74q42 0 77 -16t60 -45v279h97v-291q53 73 145 73q95 0 147.5 -75zM339.5 92.5
q28.5 13.5 54.5 43.5v272q-23 26 -55 41t-67 15q-61 0 -91.5 -48t-30.5 -143q0 -194 128 -194q33 0 61.5 13.5zM736 265q0 195 -128 195q-34 0 -62 -14t-55 -44v-272q23 -26 55 -40.5t67 -14.5q123 0 123 190z" />
    <glyph glyph-name="uni0239" unicode="&#x239;" horiz-adv-x="886" 
d="M783.5 477q52.5 -75 52.5 -210q0 -132 -54.5 -206t-152.5 -74q-42 0 -77.5 15.5t-60.5 44.5v-254h-97v267q-53 -73 -145 -73q-94 0 -146.5 75t-52.5 209q0 133 54.5 207t152.5 74q46 0 83.5 -18.5t61.5 -52.5v58h81v-72q26 42 65 63.5t88 21.5q95 0 147.5 -75z
M339.5 92.5q28.5 13.5 54.5 43.5v272q-23 26 -55 41t-67 15q-61 0 -91.5 -48t-30.5 -143q0 -194 128 -194q33 0 61.5 13.5zM736 265q0 195 -128 195q-34 0 -62 -14t-55 -44v-272q23 -26 55 -40.5t67 -14.5q123 0 123 190z" />
    <glyph glyph-name="uni023A" unicode="&#x23a;" horiz-adv-x="668" 
d="M477 182h-144l-102 -289h-73l103 289h-72l-59 -182h-105l254 724h110l32 -92l63 178h73l-100 -281l185 -529h-106zM292 269l81 230l-41 125l-115 -355h75zM448 269l-40 123l-44 -123h84z" />
    <glyph glyph-name="uni023B" unicode="&#x23b;" horiz-adv-x="601" 
d="M482 1q-51 -13 -109 -13q-86 0 -154 31l-47 -126h-73l62 164q-55 46 -84 119.5t-29 171.5q0 117 39.5 205t111.5 136t169 48q24 0 48 -3l29 76h73l-34 -91q41 -12 75 -33l-36 -78q-35 16 -71 27l-198 -524q49 -31 125 -31q91 0 150 35l36 -77q-32 -24 -83 -37zM200 161
l183 485l-17 1q-102 0 -158.5 -76.5t-56.5 -214.5q0 -127 49 -195z" />
    <glyph glyph-name="uni023C" unicode="&#x23c;" horiz-adv-x="481" 
d="M380.5 0q-40.5 -12 -87.5 -12q-57 0 -102 18l-43 -116h-69l55 149q-43 35 -65.5 93t-22.5 135q0 85 30 149.5t85 100t127 35.5q12 0 34 -2l36 96h69l-41 -111q36 -14 59 -29l-36 -77q-26 14 -54 22l-131 -356q30 -17 75 -17q61 0 117 32l35 -76q-30 -22 -70.5 -34z
M173 144l117 319h-4q-66 0 -103 -50t-37 -139q0 -82 27 -130z" />
    <glyph glyph-name="uni023D" unicode="&#x23d;" horiz-adv-x="528" 
d="M501 90v-90h-411v326h-66v81h66v317h99v-317h178v-81h-178v-236h312z" />
    <glyph glyph-name="uni023E" unicode="&#x23e;" horiz-adv-x="528" 
d="M423 634l-110 -251v-383h-99v156l-114 -263h-73l187 426v315h-188v90h287h77l37 86h72l-37 -86h40v-90h-79zM365 634h-52v-118z" />
    <glyph glyph-name="uni023F" unicode="&#x23f;" horiz-adv-x="466" 
d="M399 -123l17 -74q-37 -18 -85 -18q-44 0 -75 16t-51 40t-47 67q-28 43 -49 69.5t-52 47.5q-11 5 -24 13l35 81q73 -45 154 -45q107 0 107 73q0 29 -17.5 46.5t-56.5 26.5l-71 17q-74 17 -108.5 53.5t-34.5 97.5q0 77 51 120t143 43q46 0 91.5 -11t82.5 -31l-37 -80
q-74 36 -139 36q-48 0 -72.5 -17.5t-24.5 -50.5q0 -27 18 -44t56 -26l71 -17q74 -17 108.5 -54.5t34.5 -99.5q0 -79 -53.5 -123.5t-148.5 -44.5q-19 0 -28 1l21 -28q36 -47 62.5 -69.5t66.5 -22.5q23 0 55 8z" />
    <glyph glyph-name="uni0240" unicode="&#x240;" horiz-adv-x="464" 
d="M484 -197q-36 -18 -84 -18q-45 0 -75.5 16t-49 39.5t-40.5 61.5q-19 33 -33.5 52.5t-37 32.5t-54.5 13h-72v82l275 375h-266v82h376v-82l-276 -376q42 -4 71 -21.5t46 -40.5t37 -59q25 -46 48 -68.5t64 -22.5q23 0 55 8z" />
    <glyph glyph-name="uni0241" unicode="&#x241;" horiz-adv-x="558" 
d="M448 355.5q-51 -72.5 -144 -110.5v-245h-99v306q186 51 186 209q0 127 -119 127q-41 0 -82.5 -16t-88.5 -51l-52 75q44 41 105 64t126 23q104 0 161.5 -56.5t57.5 -158.5q0 -94 -51 -166.5z" />
    <glyph glyph-name="uni0242" unicode="&#x242;" horiz-adv-x="485" 
d="M388 296.5q-42 -53.5 -119 -84.5v-212h-96v267q153 44 153 147q0 77 -90 77q-34 0 -68.5 -11.5t-73.5 -37.5l-49 70q38 33 90 51.5t109 18.5q89 0 137.5 -42.5t48.5 -119.5q0 -70 -42 -123.5z" />
    <glyph glyph-name="uni0243" unicode="&#x243;" horiz-adv-x="646" 
d="M598 209q0 -99 -59.5 -154t-166.5 -55h-229h-53v169h-66v78h66v477h99h148q104 0 162 -53t58 -148q0 -109 -94 -141q135 -36 135 -173zM189 636v-222h148q58 0 88 27.5t30 80.5q0 56 -31 85t-92 29h-143zM465 118.5q30 30.5 30 89.5q0 120 -123 120h-183v-81h143v-78
h-143v-81h188q58 0 88 30.5z" />
    <glyph glyph-name="uni0244" unicode="&#x244;" horiz-adv-x="695" 
d="M679 332h-74v-78q0 -127 -68 -197t-191 -70q-122 0 -189 70t-67 197v78h-74v81h74v311h99v-311h317v311h99v-311h74v-81zM506 332h-317v-74q0 -90 40 -136t118 -46q79 0 119 46t40 136v74z" />
    <glyph glyph-name="uni0245" unicode="&#x245;" horiz-adv-x="632" 
d="M497 0l-182 617l-180 -617h-105l231 724h110l232 -724h-106z" />
    <glyph glyph-name="uni0246" unicode="&#x246;" horiz-adv-x="576" 
d="M536 0h-301l-32 -107h-73l32 107h-72v724h289l26 86h73l-26 -86h71v-89h-98l-66 -220h79v-90h-105l-71 -236h274v-89zM353 635h-164v-220h98zM260 325h-71v-236z" />
    <glyph glyph-name="uni0247" unicode="&#x247;" horiz-adv-x="541" 
d="M300 241l-57 -155q25 -9 59 -9q72 0 136 38l35 -75q-34 -25 -81 -38.5t-98 -13.5q-44 0 -83 11l-40 -109h-69l51 137q-51 34 -78 95.5t-27 146.5q0 134 60 208.5t168 74.5q36 0 67 -9l37 103h69l-47 -129q46 -32 70.5 -89t24.5 -136q0 -31 -4 -51h-193zM186 427.5
q-32 -38.5 -39 -113.5h111l54 146q-18 6 -38 6q-56 0 -88 -38.5zM367 423l-40 -109h73q-2 72 -33 109zM231 241h-85q6 -79 42 -119z" />
    <glyph glyph-name="uni0248" unicode="&#x248;" horiz-adv-x="478" 
d="M463 332h-88v-149q0 -93 -54 -144.5t-151 -51.5q-49 0 -92 13t-72 36l37 78q61 -37 124 -37q109 0 109 110v145h-119v81h119v311h99v-311h88v-81z" />
    <glyph glyph-name="uni0249" unicode="&#x249;" horiz-adv-x="309" 
d="M287 239h-84v-204q0 -74 -18 -120t-62 -77.5t-124 -58.5l-33 80q56 20 86 41.5t42 53t12 83.5v202h-85v73h85v227h97v-227h84v-73zM107.5 641.5q-16.5 16.5 -16.5 45.5q0 30 16.5 46.5t46.5 16.5t46.5 -16.5t16.5 -45.5q0 -30 -16.5 -46.5t-46.5 -16.5t-46.5 16.5z" />
    <glyph glyph-name="uni024A" unicode="&#x24a;" horiz-adv-x="680" 
d="M709 -207q-29 -11 -67 -11q-75 0 -113.5 39.5t-38.5 116.5v142q-32 -45 -80.5 -69t-107.5 -24q-116 0 -180 98t-64 275q0 179 66 278t185 99q54 0 102.5 -21.5t78.5 -59.5v68h99v-724v-58q0 -37 14 -54t43 -17q26 0 48 6zM490 157v415q-29 35 -74 55.5t-91 20.5
q-82 0 -123 -71t-41 -211q0 -142 42.5 -214t126.5 -72q92 0 160 77z" />
    <glyph glyph-name="uni024B" unicode="&#x24b;" horiz-adv-x="575" 
d="M610 -207q-27 -11 -67 -11q-74 0 -112.5 38t-38.5 113v127q-52 -73 -145 -73t-145 75t-52 209q0 133 54 207t151 74q43 0 78 -16t59 -46v49h97v-539v-63q0 -37 14 -54t44 -17q26 0 50 6zM337.5 92.5q28.5 13.5 54.5 43.5v272q-23 26 -55 41t-67 15q-59 0 -89.5 -48.5
t-30.5 -142.5q0 -97 32 -145.5t94 -48.5q33 0 61.5 13.5z" />
    <glyph glyph-name="uni024C" unicode="&#x24c;" horiz-adv-x="649" 
d="M329 269h-124v-269h-99v272h-86v82h86v370h99h148q108 0 168.5 -60t60.5 -167q0 -85 -38.5 -141t-110.5 -76l187 -280h-120zM205 356h148q126 0 126 140q0 69 -33 104.5t-97 35.5h-144v-280z" />
    <glyph glyph-name="uni024D" unicode="&#x24d;" horiz-adv-x="426" 
d="M255 439.5q-27 -14.5 -48 -45.5v-82h172v-73h-172v-239h-97v239h-85v73h85v227h89v-78q54 89 144 89q35 0 64 -13l-20 -93q-38 10 -68 10q-37 0 -64 -14.5z" />
    <glyph glyph-name="uni024E" unicode="&#x24e;" horiz-adv-x="588" 
d="M508 602h56v-78h-93l-129 -272v-252h-99v252l-128 272h-92v78h56l-58 122h108l56 -122h219l55 122h107zM368 524h-147l74 -162z" />
    <glyph glyph-name="uni024F" unicode="&#x24f;" horiz-adv-x="532" 
d="M507 310h-85l-103 -303q-27 -81 -89 -136.5t-162 -89.5l-33 83q71 26 114 57t68 76l-107 313h-85v68h62l-55 161h101l50 -161h167l49 161h101l-55 -161h62v-68zM329 310h-125l63 -201z" />
    <glyph glyph-name="uni0250" unicode="&#x250;" horiz-adv-x="531" 
d="M416.5 247q-76.5 -46 -241.5 -47v-30q0 -46 29.5 -70t87.5 -24q66 0 126 28l25 -78q-79 -39 -166 -39q-92 0 -145.5 44.5t-53.5 128.5v379h88v-72q51 83 161 83q79 0 122.5 -42t43.5 -119q0 -96 -76.5 -142zM175 406v-134q115 1 169.5 27.5t54.5 82.5q0 41 -24 62t-71 21
q-75 0 -129 -59z" />
    <glyph glyph-name="uni0251" unicode="&#x251;" horiz-adv-x="575" 
d="M489 539v-539h-89v72q-52 -85 -153 -85q-93 0 -145 75t-52 209q0 133 54 207t151 74q43 0 78 -16t59 -46v49h97zM337.5 92.5q28.5 13.5 54.5 43.5v272q-23 26 -55 41t-67 15q-59 0 -89.5 -48.5t-30.5 -142.5q0 -97 32 -145.5t94 -48.5q33 0 61.5 13.5z" />
    <glyph glyph-name="uni0252" unicode="&#x252;" horiz-adv-x="575" 
d="M473 477q52 -75 52 -209q0 -133 -54 -207t-151 -74q-42 0 -77.5 16t-59.5 45v-48h-97v539h89v-72q52 85 153 85q93 0 145 -75zM394.5 123.5q30.5 48.5 30.5 142.5q0 97 -32 145.5t-94 48.5q-33 0 -61.5 -13.5t-54.5 -43.5v-272q23 -27 55 -41.5t67 -14.5q59 0 89.5 48.5z
" />
    <glyph glyph-name="uni0253" unicode="&#x253;" horiz-adv-x="577" 
d="M474.5 477q52.5 -75 52.5 -210q0 -132 -54.5 -206t-152.5 -74q-46 0 -83.5 18.5t-62.5 52.5v-58h-89v396v143v100q0 70 36 105.5t105 35.5q37 0 68 -12l-14 -77q-28 6 -47 6q-26 0 -38.5 -15t-12.5 -46v-157q53 73 145 73q95 0 147.5 -75zM427 265q0 195 -128 195
q-34 0 -62 -14t-55 -44v-272q23 -26 55 -40.5t67 -14.5q123 0 123 190z" />
    <glyph glyph-name="uni0254" unicode="&#x254;" horiz-adv-x="481" 
d="M370 477.5q65 -73.5 65 -205.5q0 -85 -30 -149.5t-85 -100t-127 -35.5q-41 0 -82.5 12.5t-74.5 33.5l36 77q67 -34 123 -34q66 0 103 50t37 139q0 97 -38.5 146.5t-114.5 49.5q-61 0 -117 -32l-35 76q30 22 70.5 34t87.5 12q117 0 182 -73.5z" />
    <glyph glyph-name="uni0255" unicode="&#x255;" horiz-adv-x="498" 
d="M446 249q32 -35 32 -98q0 -77 -49 -120t-137 -43q-69 0 -122 30l-60 -91l-58 38l63 97q-33 36 -51 88.5t-18 116.5q0 85 30 149.5t85 100t127 35.5q41 0 82.5 -12.5t74.5 -33.5l-36 -77q-67 34 -123 34q-66 0 -103 -50t-37 -139q0 -80 25 -127l9 14q42 64 84.5 93.5
t91.5 29.5q58 0 90 -35zM366.5 95q23.5 19 23.5 55q0 54 -47 54q-26 0 -51.5 -19.5t-52.5 -61.5l-19 -29q31 -18 78 -18q45 0 68.5 19z" />
    <glyph glyph-name="uni0256" unicode="&#x256;" horiz-adv-x="577" 
d="M602 -204q-27 -11 -67 -11q-69 0 -105 35.5t-36 104.5v135q-53 -73 -145 -73q-94 0 -146.5 75t-52.5 209q0 133 54.5 207t152.5 74q42 0 77 -16t60 -45v279h97v-601v-169v-71q0 -31 12.5 -46t38.5 -15t47 6zM339.5 92.5q28.5 13.5 54.5 43.5v272q-23 26 -55 41t-67 15
q-61 0 -91.5 -48t-30.5 -143q0 -194 128 -194q33 0 61.5 13.5z" />
    <glyph glyph-name="uni0257" unicode="&#x257;" horiz-adv-x="584" 
d="M602 768l-13 -77q-28 6 -47 6q-26 0 -38.5 -15t-12.5 -46v-160v-438v-38h-89v72q-53 -85 -153 -85q-94 0 -146.5 75t-52.5 209q0 133 54.5 207t152.5 74q42 0 77 -16t60 -45v148q0 70 36 105.5t105 35.5q37 0 67 -12zM394 408q-23 26 -55 41t-67 15q-61 0 -91.5 -48
t-30.5 -143q0 -194 128 -194q33 0 61.5 13.5t54.5 43.5v272z" />
    <glyph glyph-name="uni0258" unicode="&#x258;" horiz-adv-x="541" 
d="M433 477.5q60 -74.5 60 -208.5q0 -133 -64.5 -207t-180.5 -74q-51 0 -98.5 13.5t-81.5 38.5l36 75q62 -38 135 -38q145 0 156 164h-347q-4 20 -4 51q0 123 58 191.5t163 68.5q108 0 168 -74.5zM176 426q-33 -40 -35 -112h253q-14 152 -126 152q-59 0 -92 -40z" />
    <glyph glyph-name="uni0259" unicode="&#x259;" horiz-adv-x="541" 
d="M428.5 477q64.5 -74 64.5 -207q0 -134 -60 -208.5t-168 -74.5q-105 0 -163 68.5t-58 191.5q0 31 4 51h347q-11 164 -156 164q-72 0 -136 -38l-35 75q34 25 81 38.5t98 13.5q117 0 181.5 -74zM355 111.5q32 38.5 39 113.5h-253q2 -72 35 -112t91 -40q56 0 88 38.5z" />
    <glyph glyph-name="uni025A" unicode="&#x25a;" horiz-adv-x="701" 
d="M701 227l-15 -80q-70 0 -111.5 35t-49.5 100l-32 -6v-7q0 -134 -60 -208t-168 -74q-105 0 -163 65.5t-58 183.5q0 24 3 39l343 59q-24 128 -151 128q-70 0 -135 -38l-36 74q33 25 81 39t99 14q96 0 157.5 -51.5t80.5 -147.5l132 22l-5 -40q-1 -11 -1 -28q0 -79 74 -79h15
zM362 120.5q32 47.5 34 140.5l-255 -45q1 -68 34.5 -105.5t92.5 -37.5q62 0 94 47.5z" />
    <glyph glyph-name="uni025B" unicode="&#x25b;" horiz-adv-x="466" 
d="M445 28q-34 -20 -84.5 -30t-100.5 -10q-103 0 -160.5 43.5t-57.5 124.5q0 99 104 130q-39 16 -61 46t-22 72q0 74 56 111t139 37q43 0 85.5 -10t77.5 -27l-27 -77q-66 31 -126 31q-107 0 -107 -80q0 -38 28.5 -57t76.5 -19h85v-75h-88q-57 0 -89 -16.5t-32 -59.5
q0 -90 128 -90q36 0 73.5 9t67.5 24z" />
    <glyph glyph-name="uni025C" unicode="&#x25c;" horiz-adv-x="466" 
d="M424 156q0 -81 -62 -124.5t-165 -43.5q-49 0 -95.5 9.5t-80.5 29.5l34 76q65 -31 134 -31q64 0 99.5 22.5t35.5 67.5q0 43 -32.5 59.5t-89.5 16.5h-87v75h84q49 0 77.5 19t28.5 57q0 42 -30.5 61t-81.5 19q-55 0 -121 -30l-27 77q34 17 77 26.5t85 9.5q86 0 141 -36
t55 -112q0 -42 -22 -72t-61 -46q104 -31 104 -130z" />
    <glyph glyph-name="uni025D" unicode="&#x25d;" horiz-adv-x="621" 
d="M621 339l-15 -80q-70 0 -111.5 35t-49.5 100l-43 -8q-9 -70 -82 -100q104 -31 104 -130q0 -81 -62 -124.5t-165 -43.5q-49 0 -95.5 9.5t-80.5 29.5l34 76q65 -31 134 -31q64 0 99.5 22.5t35.5 67.5q0 43 -32.5 59.5t-89.5 16.5h-87v75h84q49 0 77.5 19t28.5 57
q0 42 -30.5 61t-81.5 19q-55 0 -121 -30l-27 77q34 17 77 26.5t85 9.5q67 0 116.5 -22t68.5 -68l146 24l-4 -40v-1q-2 -22 -2 -27q0 -79 74 -79h15z" />
    <glyph glyph-name="uni025E" unicode="&#x25e;" horiz-adv-x="550" 
d="M508 156q0 -80 -61.5 -124t-159.5 -44q-118 0 -177.5 70.5t-59.5 210.5q0 283 242 283q85 0 140 -36.5t55 -111.5q0 -42 -22 -72t-61 -46q104 -31 104 -130zM372.5 95q35.5 23 35.5 67q0 43 -32.5 59.5t-89.5 16.5h-59v75h56q49 0 77.5 19t28.5 57q0 41 -30.5 60.5
t-76.5 19.5q-68 0 -100 -48t-32 -152q0 -102 32 -149.5t101 -47.5q54 0 89.5 23z" />
    <glyph glyph-name="uni025F" unicode="&#x25f;" horiz-adv-x="309" 
d="M287 239h-84v-204q0 -74 -18 -120t-62 -77.5t-124 -58.5l-33 80q56 20 86 41.5t42 53t12 83.5v202h-85v73h85v227h97v-227h84v-73z" />
    <glyph glyph-name="uni0260" unicode="&#x260;" horiz-adv-x="579" 
d="M604 768l-13 -77q-28 6 -47 6q-26 0 -38.5 -15t-12.5 -46v-97h1v-533q0 -107 -63 -166.5t-176 -59.5q-43 0 -85 9t-74 25l29 82q60 -29 124 -29q148 0 148 139v84q-53 -73 -146 -73q-95 0 -148 71t-53 198q0 126 55 196t154 70q42 0 77 -16t60 -45v148q0 70 36 105.5
t105 35.5q37 0 67 -12zM342.5 122.5q28.5 13.5 54.5 43.5v215h-1v28q-23 26 -55 40.5t-67 14.5q-124 0 -124 -176q0 -89 33 -134t97 -45q34 0 62.5 13.5z" />
    <glyph glyph-name="uni0261" unicode="&#x261;" horiz-adv-x="579" 
d="M494 539v-533q0 -107 -63 -166.5t-176 -59.5q-43 0 -85 9t-74 25l29 82q60 -29 124 -29q148 0 148 139v84q-53 -73 -146 -73q-95 0 -148 71t-53 198q0 126 55 196t154 70q46 0 83.5 -18.5t62.5 -53.5v59h89zM342.5 122.5q28.5 13.5 54.5 43.5v242q-24 27 -56 41.5
t-67 14.5q-124 0 -124 -176q0 -89 33 -134t97 -45q34 0 62.5 13.5z" />
    <glyph glyph-name="uni0262" unicode="&#x262;" horiz-adv-x="576" 
d="M509 305v-272q-33 -20 -80 -31.5t-98 -11.5q-132 0 -204.5 73t-72.5 206t72.5 206t204.5 73q50 0 94.5 -11t75.5 -31l-29 -77q-73 33 -143 33q-175 0 -175 -193q0 -192 177 -192q44 0 81 9v133h-103v86h200z" />
    <glyph glyph-name="uni0263" unicode="&#x263;" horiz-adv-x="522" 
d="M351 1q29 -66 29 -110q0 -53 -31 -82t-87 -29q-55 0 -85.5 29.5t-30.5 81.5q0 43 28 110l43 105l-192 433h102l135 -325l135 325h100l-191 -430zM296 -105q0 33 -26 92l-9 20l-9 -20q-26 -59 -26 -91q0 -44 36 -44q34 0 34 43z" />
    <glyph glyph-name="uni0264" unicode="&#x264;" horiz-adv-x="531" 
d="M501.5 538q28.5 -15 54.5 -46l-55 -63q-22 20 -35 27.5t-26 7.5q-14 0 -27 -12.5t-32 -43.5l-69 -113l42 -75q20 -35 29 -61.5t9 -53.5q0 -56 -33 -87t-93 -31q-59 0 -91.5 31t-32.5 86q0 27 8.5 54t28.5 62l41 72l-71 116q-19 32 -32 44t-28 12q-13 0 -27 -7.5
t-34 -26.5l-53 62q26 31 54.5 46t62.5 15q41 0 70 -22t59 -75l46 -81l45 81q30 53 59 75t68 22q34 0 62.5 -15zM265 217l-14 -23q-29 -50 -29 -86q0 -48 44 -48q42 0 42 47q0 39 -29 87z" />
    <glyph glyph-name="uni0265" unicode="&#x265;" horiz-adv-x="575" 
d="M490 539v-746h-97v265q-57 -71 -153 -71q-77 0 -119.5 45.5t-42.5 127.5v379h97v-368q0 -92 97 -92q36 0 65 13t56 42v405h97z" />
    <glyph glyph-name="uni0266" unicode="&#x266;" horiz-adv-x="585" 
d="M461.5 506.5q43.5 -45.5 43.5 -127.5v-379h-97v368q0 92 -101 92q-35 0 -65.5 -11.5t-59.5 -35.5v-413h-97v590v49q0 70 36 105.5t105 35.5q37 0 68 -12l-14 -77q-28 6 -47 6q-26 0 -38.5 -15t-12.5 -46v-150q66 66 157 66q79 0 122.5 -45.5z" />
    <glyph glyph-name="uni0267" unicode="&#x267;" horiz-adv-x="585" 
d="M461.5 506.5q43.5 -45.5 43.5 -127.5v-379v-54q0 -79 -41 -122.5t-115 -43.5q-70 0 -119 36l32 74q48 -25 82 -25q64 0 64 85v206v212q0 92 -101 92q-35 0 -65.5 -11.5t-59.5 -35.5v-413h-97v590v49q0 70 36 105.5t105 35.5q37 0 68 -12l-14 -77q-28 6 -47 6
q-26 0 -38.5 -15t-12.5 -46v-150q66 66 157 66q79 0 122.5 -45.5z" />
    <glyph glyph-name="uni0268" unicode="&#x268;" horiz-adv-x="309" 
d="M107.5 641.5q-16.5 16.5 -16.5 45.5q0 30 16.5 46.5t46.5 16.5t46.5 -16.5t16.5 -45.5q0 -30 -16.5 -46.5t-46.5 -16.5t-46.5 16.5zM287 239h-85v-239h-97v239h-84v73h84v227h97v-227h85v-73z" />
    <glyph glyph-name="uni0269" unicode="&#x269;" horiz-adv-x="378" 
d="M83 169v370h97v-354q0 -55 22.5 -80.5t69.5 -25.5q28 0 56 9l16 -83q-40 -12 -87 -12q-174 0 -174 176z" />
    <glyph glyph-name="uni026A" unicode="&#x26a;" horiz-adv-x="273" 
d="M88 539h97v-539h-97v539z" />
    <glyph glyph-name="uni026B" unicode="&#x26b;" horiz-adv-x="391" 
d="M317 84l8 -82q-35 -8 -69 -8q-126 0 -126 127v283q-7 3 -15 3q-34 0 -41 -61h-59q2 63 28.5 99t73.5 36q9 0 13 -1v290h97v-341q20 -11 32 -11q34 0 41 61h59q-2 -63 -28.5 -99t-73.5 -36q-12 0 -30 4v-214q0 -28 12.5 -41t39.5 -13q18 0 38 4z" />
    <glyph glyph-name="uni026C" unicode="&#x26c;" horiz-adv-x="436" 
d="M362 84l8 -82q-35 -8 -70 -8q-125 0 -125 127v140q-18 -3 -32 -3q-63 0 -98 34t-35 95t34 94.5t96 33.5q17 0 35 -5v260h97v-409l4 2l112 40l24 -66l-115 -42l-25 -9v-152q0 -28 12.5 -41t39.5 -13q18 0 38 4zM175 336v98q-13 4 -33 4q-51 0 -51 -52t52 -52q8 0 32 2z
" />
    <glyph glyph-name="uni026D" unicode="&#x26d;" horiz-adv-x="268" 
d="M281 -210q-35 -8 -70 -8q-126 0 -126 127v649v212h97v-770v-77q0 -28 12.5 -41t40.5 -13q14 0 38 3z" />
    <glyph glyph-name="uni026E" unicode="&#x26e;" horiz-adv-x="641" 
d="M541 160q61 -50 61 -150q0 -75 -33.5 -127t-91.5 -77.5t-130 -25.5q-115 0 -189 41l34 76q38 -17 72.5 -25t74.5 -8q77 0 120 37.5t43 108.5q0 73 -51.5 105t-136.5 32h-46v75l185 234h-271v-456h-97v770h97v-231h382v-84l-189 -235q105 -10 166 -60z" />
    <glyph glyph-name="uni026F" unicode="&#x26f;" horiz-adv-x="883" 
d="M797 539v-539h-89v61q-65 -74 -160 -74q-52 0 -88.5 21.5t-54.5 62.5q-69 -84 -168 -84q-75 0 -117 45.5t-42 127.5v379h97v-368q0 -92 94 -92q33 0 62 11.5t59 36.5q-2 20 -2 33v379h97v-368q0 -46 24 -69t71 -23q33 0 62 11t58 36v413h97z" />
    <glyph glyph-name="uni0270" unicode="&#x270;" horiz-adv-x="883" 
d="M797 -207h-97v260q-66 -66 -153 -66q-51 0 -87.5 21.5t-54.5 62.5q-70 -84 -169 -84q-75 0 -116.5 45.5t-41.5 127.5v379h97v-368q0 -45 24 -68.5t70 -23.5q62 0 121 49q-2 20 -2 32v379h97v-368q0 -45 24 -68.5t71 -23.5q33 0 62 11.5t58 35.5v413h97v-746z" />
    <glyph glyph-name="uni0271" unicode="&#x271;" horiz-adv-x="885" 
d="M762.5 506.5q41.5 -45.5 41.5 -127.5v-379v-67q0 -151 -151 -151q-38 0 -67 11l14 79q23 -6 50 -6q29 0 43 17t14 54v249v182q0 92 -94 92q-33 0 -62 -11.5t-59 -37.5q2 -10 2 -32v-379h-97v368q0 92 -95 92q-32 0 -61 -11.5t-59 -35.5v-413h-97v539h89v-62q66 75 161 75
q51 0 87.5 -21.5t54.5 -62.5q72 84 169 84q75 0 116.5 -45.5z" />
    <glyph glyph-name="uni0272" unicode="&#x272;" horiz-adv-x="583" 
d="M459.5 506.5q43.5 -45.5 43.5 -127.5v-379h-97v368q0 92 -100 92q-35 0 -64.5 -11.5t-59.5 -35.5v-413v-67q0 -151 -151 -151q-38 0 -67 11l14 79q24 -6 50 -6q30 0 43.5 17t13.5 54v249v353h89v-62q66 75 164 75q78 0 121.5 -45.5z" />
    <glyph glyph-name="uni0273" unicode="&#x273;" horiz-adv-x="583" 
d="M624 -207q-29 -11 -67 -11q-75 0 -113 38t-38 112v234v202q0 92 -100 92q-35 0 -64.5 -11.5t-59.5 -35.5v-413h-97v539h89v-62q66 75 164 75q78 0 121.5 -45.5t43.5 -127.5v-379v-64q0 -37 13.5 -54t43.5 -17q29 0 50 7z" />
    <glyph glyph-name="uni0274" unicode="&#x274;" horiz-adv-x="632" 
d="M546 539v-539h-93l-272 376v-376h-95v539h93l272 -375v375h95z" />
    <glyph glyph-name="uni0275" unicode="&#x275;" horiz-adv-x="558" 
d="M449 480q59 -72 59 -211q0 -138 -59.5 -210t-169.5 -72q-111 0 -170 71.5t-59 210.5t59.5 211t170.5 72q110 0 169 -72zM148 312h262q-13 156 -130 156q-118 0 -132 -156zM411 240h-264q11 -170 132 -170t132 170z" />
    <glyph glyph-name="uni0276" unicode="&#x276;" horiz-adv-x="813" 
d="M777 87v-87h-364h-107q-123 0 -187.5 67.5t-64.5 201.5q0 133 65 201.5t187 68.5h139h321v-87h-258v-133h188v-88h-188v-144h269zM413 87v365h-107q-152 0 -152 -183q0 -182 152 -182h107z" />
    <glyph glyph-name="uni0277" unicode="&#x277;" horiz-adv-x="769" 
d="M107.5 50.5q-47.5 63.5 -47.5 177.5q0 153 85.5 238.5t239.5 85.5t239 -85t85 -238q0 -115 -47.5 -178.5t-133.5 -63.5q-50 0 -88.5 24.5t-54.5 79.5q-16 -55 -55 -79.5t-89 -24.5q-86 0 -133.5 63.5zM314 106.5q22 34.5 22 93.5v60h97v-60q0 -64 24 -96t65 -32
q43 0 65.5 38.5t22.5 113.5q0 119 -57 180t-168 61q-112 0 -168.5 -61t-56.5 -180q0 -75 22 -113.5t65 -38.5q45 0 67 34.5z" />
    <glyph glyph-name="uni0278" unicode="&#x278;" horiz-adv-x="587" 
d="M485.5 73.5q-51.5 -70.5 -148.5 -83.5v-197h-87v197q-97 12 -148.5 83t-51.5 196t51.5 196t148.5 84v192h87v-192q97 -13 148.5 -83.5t51.5 -196.5q0 -125 -51.5 -195.5zM441 269q0 168 -104 194v-387q104 26 104 193zM250 75v388q-104 -27 -104 -194t104 -194z" />
    <glyph glyph-name="uni0279" unicode="&#x279;" horiz-adv-x="401" 
d="M316 539v-539h-89v80q-55 -91 -144 -91q-35 0 -65 13l21 93q37 -10 68 -10q37 0 64 15t48 47v392h97z" />
    <glyph glyph-name="uni027A" unicode="&#x27a;" horiz-adv-x="401" 
d="M227 0v80q-55 -91 -144 -91q-35 0 -65 13l21 93q37 -10 68 -10q37 0 64 15t48 47v182v441h97v-770h-89z" />
    <glyph glyph-name="uni027B" unicode="&#x27b;" horiz-adv-x="401" 
d="M437 -207q-29 -11 -67 -11q-151 0 -151 151v133q-53 -77 -136 -77q-35 0 -64 13l20 93q31 -10 68 -10t64 15t48 46v393h97v-539v-63q0 -37 13.5 -54t43.5 -17q28 0 50 6z" />
    <glyph glyph-name="uni027C" unicode="&#x27c;" horiz-adv-x="401" 
d="M383 537l-21 -93q-37 10 -68 10q-37 0 -64 -15t-48 -46v-393v-207h-97v362v384h89v-79q55 90 144 90q35 0 65 -13z" />
    <glyph glyph-name="uni027D" unicode="&#x27d;" horiz-adv-x="401" 
d="M196 -117q14 -17 44 -17q26 0 50 6l14 -79q-29 -11 -68 -11q-74 0 -112.5 38t-38.5 113v253v353h89v-79q55 90 144 90q35 0 65 -13l-21 -93q-37 10 -68 10q-37 0 -64 -15t-48 -46v-456q0 -37 14 -54z" />
    <glyph glyph-name="uni027E" unicode="&#x27e;" horiz-adv-x="332" 
d="M304 528l-14 -79q-22 7 -50 7q-30 0 -44 -17t-14 -54v-247v-138h-97v262v127q0 74 38.5 112t112.5 38q39 0 68 -11z" />
    <glyph glyph-name="uni027F" unicode="&#x27f;" horiz-adv-x="332" 
d="M208.5 501q38.5 -38 38.5 -112v-251v-138h-97v262v123q0 37 -14 54t-44 17q-28 0 -50 -7l-13 79q28 11 67 11q74 0 112.5 -38z" />
    <glyph glyph-name="uni0280" unicode="&#x280;" horiz-adv-x="549" 
d="M273 189h-90v-189h-97v539h97h112q93 0 143.5 -46t50.5 -129q0 -63 -30.5 -105t-86.5 -59l152 -200h-117zM183 272h112q94 0 94 90q0 92 -97 92h-109v-182z" />
    <glyph glyph-name="uni0281" unicode="&#x281;" horiz-adv-x="549" 
d="M459 280q30 -42 30 -105q0 -83 -50.5 -129t-143.5 -46h-134h-75v539h97v-189h90l134 189h117l-151 -200q56 -17 86 -59zM389 177q0 90 -94 90h-112v-182h109q97 0 97 92z" />
    <glyph glyph-name="uni0282" unicode="&#x282;" horiz-adv-x="466" 
d="M124 0v-64q0 -37 15 -54t46 -17t53 7l14 -79q-29 -11 -71 -11q-73 0 -110.5 38t-37.5 113v105l35 81q73 -45 154 -45q107 0 107 73q0 29 -17.5 46.5t-56.5 26.5l-71 17q-74 17 -108.5 53.5t-34.5 97.5q0 77 51 120t143 43q46 0 91.5 -11t82.5 -31l-37 -80q-74 36 -139 36
q-48 0 -72.5 -17.5t-24.5 -50.5q0 -27 18 -44t56 -26l71 -17q74 -17 108.5 -54.5t34.5 -99.5q0 -79 -53.5 -123.5t-148.5 -44.5q-51 0 -98 12z" />
    <glyph glyph-name="uni0283" unicode="&#x283;" horiz-adv-x="287" 
d="M326 775v-85q-34 4 -55 4q-44 0 -66.5 -24.5t-22.5 -73.5v-27v-569v-38q0 -87 -49 -135.5t-137 -48.5q-32 0 -55 5v85q36 -4 55 -4q89 0 89 98v77v543v14q0 87 49 135.5t137 48.5q33 0 55 -5z" />
    <glyph glyph-name="uni0284" unicode="&#x284;" horiz-adv-x="308" 
d="M347 775v-85q-36 4 -55 4q-89 0 -89 -98v-57v-227h84v-73h-84v-204q0 -74 -18 -120t-62 -77.5t-124 -58.5l-33 80q56 20 86 41.5t42 53t12 83.5v202h-85v73h85v157v127q0 87 49 135.5t137 48.5q32 0 55 -5z" />
    <glyph glyph-name="uni0285" unicode="&#x285;" horiz-adv-x="324" 
d="M383 -132v-85q-23 -5 -55 -5q-88 0 -137 48.5t-49 135.5v61v316v28q0 98 -90 98q-20 0 -54 -4v85q22 5 54 5q88 0 137 -48.5t49 -135.5v-56v-311v-38q0 -98 90 -98q19 0 55 4z" />
    <glyph glyph-name="uni0286" unicode="&#x286;" horiz-adv-x="349" 
d="M377 -120l-40 -55l-102 68q-15 -54 -53.5 -82.5t-96.5 -28.5q-65 0 -101 34t-36 95t36.5 96.5t98.5 35.5q32 0 64 -16v555v14q0 87 49 135.5t137 48.5q33 0 55 -5v-85q-36 4 -55 4q-89 0 -89 -98v-27v-601zM129 -117q16 21 18 65q-37 19 -64 19q-25 0 -38 -13.5
t-13 -38.5q0 -53 50 -53q31 0 47 21z" />
    <glyph glyph-name="uni0287" unicode="&#x287;" horiz-adv-x="391" 
d="M284 525v-287h90v-83h-90v-155h-97v155h-156v83h156v271q0 55 -22 80.5t-69 25.5q-27 0 -56 -9l-16 83q40 12 87 12q173 0 173 -176z" />
    <glyph glyph-name="uni0288" unicode="&#x288;" horiz-adv-x="384" 
d="M217 -118q14 -17 44 -17q28 0 50 7l13 -79q-29 -11 -67 -11q-74 0 -112.5 38t-38.5 112v234v290h-89v83h90v155h96v-155h157v-83h-157v-520q0 -37 14 -54z" />
    <glyph glyph-name="uni0289" unicode="&#x289;" horiz-adv-x="604" 
d="M584 240h-80v-240h-89v69q-59 -82 -161 -82q-77 0 -119.5 45.5t-42.5 127.5v80h-80v72h80v227h97v-227h218v227h97v-227h80v-72zM407 240h-218v-69q0 -92 97 -92q37 0 66 13.5t55 42.5v105z" />
    <glyph glyph-name="uni028A" unicode="&#x28a;" horiz-adv-x="569" 
d="M519 461h-95q86 -92 86 -225q0 -116 -59.5 -182t-165.5 -66q-107 0 -166.5 65.5t-59.5 182.5q0 133 86 225h-95v78h192v-87q-43 -39 -63 -88.5t-20 -116.5q0 -86 32 -130t94 -44t93.5 44t31.5 130q0 67 -20.5 116.5t-63.5 88.5v87h193v-78z" />
    <glyph glyph-name="uni028B" unicode="&#x28b;" horiz-adv-x="558" 
d="M454.5 494q39.5 -52 39.5 -154v-64q0 -140 -56.5 -214.5t-162.5 -74.5q-93 0 -145 52t-52 146v354h97v-337q0 -128 102 -128q61 0 89.5 49t28.5 152v61q0 123 -69 123q-13 0 -40 -5l-9 83q24 9 59 9q79 0 118.5 -52z" />
    <glyph glyph-name="uni028C" unicode="&#x28c;" horiz-adv-x="522" 
d="M395 0l-136 439l-133 -439h-101l183 539h105l184 -539h-102z" />
    <glyph glyph-name="uni028D" unicode="&#x28d;" horiz-adv-x="784" 
d="M656 0l-108 438l-106 -438h-100l-108 436l-107 -436h-100l155 539h106l105 -413l104 413h106l154 -539h-101z" />
    <glyph glyph-name="uni028E" unicode="&#x28e;" horiz-adv-x="518" 
d="M391 0l-133 431l-132 -431h-101l180 532q27 81 89 136.5t162 89.5l34 -83q-71 -26 -114 -57t-68 -76l185 -542h-102z" />
    <glyph glyph-name="uni028F" unicode="&#x28f;" horiz-adv-x="494" 
d="M477 539l-182 -359v-180h-97v180l-181 359h105l126 -260l126 260h103z" />
    <glyph glyph-name="uni0290" unicode="&#x290;" horiz-adv-x="467" 
d="M544 -206q-29 -11 -70 -11q-138 0 -138 141v76h-298v82l275 375h-266v82h376v-82l-275 -375h279v-82v-73q0 -32 12.5 -46.5t40.5 -14.5q29 0 50 6z" />
    <glyph glyph-name="uni0291" unicode="&#x291;" horiz-adv-x="552" 
d="M521 231q29 -30 29 -84q0 -69 -48.5 -108t-134.5 -39h-86l-57 -103l-64 33l39 70h-161v82l275 375h-266v82h376v-82l-276 -376h97l37 66q33 59 71.5 86.5t86.5 27.5q53 0 82 -30zM465 142q0 19 -10 29.5t-29 10.5q-23 0 -42.5 -16t-39.5 -52l-18 -33h45q94 0 94 61z" />
    <glyph glyph-name="uni0292" unicode="&#x292;" horiz-adv-x="503" 
d="M403 160q61 -50 61 -150q0 -75 -33.5 -127t-91.5 -77.5t-130 -25.5q-115 0 -189 41l34 76q72 -33 148 -33q77 0 119.5 37.5t42.5 108.5q0 73 -51.5 105t-136.5 32h-46v75l185 234h-275v83h386v-84l-190 -236q106 -9 167 -59z" />
    <glyph glyph-name="uni0293" unicode="&#x293;" horiz-adv-x="524" 
d="M465 -91q-20 -45 -58 -75l54 -82l-58 -39l-57 87q-54 -20 -122 -20q-97 0 -150.5 41t-53.5 115q0 62 36 97t99 35q53 0 94.5 -28.5t84.5 -93.5l22 -34q29 35 29 98q0 73 -51.5 105t-136.5 32h-46v75l185 234h-275v83h386v-84l-190 -236q106 -9 167 -59t61 -150
q0 -56 -20 -101zM297 -126l-22 34q-28 43 -54.5 62t-58.5 19q-28 0 -42.5 -13.5t-14.5 -38.5q0 -35 30 -54t87 -19q40 0 75 10z" />
    <glyph glyph-name="uni0294" unicode="&#x294;" horiz-adv-x="558" 
d="M447.5 401q-51.5 -72 -145.5 -110v-291h-97v352q93 25 140 78t47 131q0 63 -30.5 95t-89.5 32q-41 0 -82.5 -16t-88.5 -51l-52 75q44 41 105 64t126 23q104 0 161.5 -56.5t57.5 -158.5q0 -95 -51.5 -167z" />
    <glyph glyph-name="uni0295" unicode="&#x295;" horiz-adv-x="560" 
d="M198.5 656q-32.5 -32 -32.5 -95q0 -77 47 -129.5t140 -79.5v-352h-97v284q-95 33 -146 104t-51 168q0 107 62 167t172 60q135 0 218 -89l-56 -73q-38 35 -76.5 51t-83.5 16q-64 0 -96.5 -32z" />
    <glyph glyph-name="uni0296" unicode="&#x296;" horiz-adv-x="560" 
d="M449.5 381.5q51.5 -70.5 51.5 -167.5q0 -107 -62 -167t-172 -60q-135 0 -218 89l56 73q38 -35 76.5 -51t83.5 -16q64 0 96.5 32t32.5 95q0 77 -47 129.5t-140 79.5v352h97v-284q94 -34 145.5 -104.5z" />
    <glyph glyph-name="uni0297" unicode="&#x297;" horiz-adv-x="498" 
d="M111 -123.5q-65 96.5 -65 286.5q0 184 66.5 286.5t185.5 102.5q43 0 86 -13.5t78 -37.5l-39 -77q-70 38 -127 38q-74 0 -112 -73.5t-38 -218.5q0 -155 39.5 -227t123.5 -72q68 0 121 37l38 -76q-31 -25 -74.5 -38.5t-90.5 -13.5q-127 0 -192 96.5z" />
    <glyph glyph-name="uni0298" unicode="&#x298;" horiz-adv-x="854" 
d="M230 33.5q-83 46.5 -127.5 135.5t-44.5 212t44.5 212t127.5 135.5t197 46.5t197 -46.5t127.5 -135.5t44.5 -212t-44.5 -212t-127.5 -135.5t-197 -46.5t-197 46.5zM623 156q70 80 70 225t-70 225t-196 80t-196 -80t-70 -225t70 -225t196 -80t196 80zM378 335.5
q-18 17.5 -18 47.5q0 31 17.5 48t49.5 17q31 0 48.5 -17t17.5 -47q0 -31 -17 -48.5t-49 -17.5q-31 0 -49 17.5z" />
    <glyph glyph-name="uni0299" unicode="&#x299;" horiz-adv-x="560" 
d="M516 161q0 -76 -50 -118.5t-141 -42.5h-187h-52v539h97h113q88 0 137 -40t49 -113q0 -76 -71 -102q105 -29 105 -123zM183 452v-135h113q87 0 87 66q0 69 -92 69h-108zM394.5 104q21.5 19 21.5 55q0 37 -23 56t-68 19h-142v-149h147q43 0 64.5 19z" />
    <glyph glyph-name="uni029A" unicode="&#x29a;" horiz-adv-x="550" 
d="M440 481q60 -71 60 -212q0 -140 -61.5 -210.5t-182.5 -70.5q-98 0 -156 43.5t-58 124.5q0 99 104 130q-39 16 -61 46t-22 72q0 74 56 111t142 37q119 0 179 -71zM366.5 119.5q33.5 47.5 33.5 150.5t-33 151t-103 48q-46 0 -74.5 -19t-28.5 -61q0 -38 28.5 -57t76.5 -19
h57v-75h-60q-57 0 -89 -16.5t-32 -59.5q0 -45 32.5 -67.5t86.5 -22.5q72 0 105.5 47.5z" />
    <glyph glyph-name="uni029B" unicode="&#x29b;" horiz-adv-x="667" 
d="M620 671v-81q-27 3 -42 3q-77 0 -77 -81v-15v-68h-29q-73 33 -143 33q-175 0 -175 -193q0 -192 177 -192q44 0 81 9v133h-103v86h200v-272q-33 -20 -80 -31.5t-98 -11.5q-132 0 -204.5 73t-72.5 206t72.5 206t204.5 73q50 0 89 -10q8 65 48.5 100.5t110.5 35.5
q21 0 41 -3z" />
    <glyph glyph-name="uni029C" unicode="&#x29c;" horiz-adv-x="614" 
d="M528 539v-539h-97v230h-248v-230h-97v539h97v-223h248v223h97z" />
    <glyph glyph-name="uni029D" unicode="&#x29d;" horiz-adv-x="331" 
d="M148.5 641.5q-16.5 16.5 -16.5 45.5q0 30 16.5 46.5t46.5 16.5t46.5 -16.5t16.5 -45.5q0 -30 -16.5 -46.5t-46.5 -16.5t-46.5 16.5zM324 -184l-91 70q-16 -50 -54 -77t-95 -27q-65 0 -100.5 34t-35.5 95t36.5 96.5t98.5 35.5q32 0 63 -14v510h97v-475h1v-101l123 -95z
M130 -117q16 21 17 66q-34 18 -64 18q-25 0 -38 -13.5t-13 -38.5q0 -53 50 -53q32 0 48 21z" />
    <glyph glyph-name="uni029E" unicode="&#x29e;" horiz-adv-x="547" 
d="M461 -202h-97v202v257l-217 -257h-115l198 227l-211 312h115l161 -239l69 80v159h97v-741z" />
    <glyph glyph-name="uni029F" unicode="&#x29f;" horiz-adv-x="457" 
d="M434 87v-87h-349v539h97v-452h252z" />
    <glyph glyph-name="uni02A0" unicode="&#x2a0;" horiz-adv-x="577" 
d="M602 768l-13 -77q-28 6 -47 6q-26 0 -38.5 -15t-12.5 -46v-160v-438v-245h-97v267q-53 -73 -145 -73q-94 0 -146.5 75t-52.5 209q0 133 54.5 207t152.5 74q42 0 77 -16t60 -45v148q0 70 36 105.5t105 35.5q37 0 67 -12zM394 408q-23 26 -55 41t-67 15q-61 0 -91.5 -48
t-30.5 -143q0 -194 128 -194q33 0 61.5 13.5t54.5 43.5v272z" />
    <glyph glyph-name="uni02A1" unicode="&#x2a1;" horiz-adv-x="558" 
d="M447.5 401q-51.5 -72 -145.5 -110v-73h106v-79h-106v-139h-97v139h-103v79h103v134q93 25 140 78t47 131q0 63 -30.5 95t-89.5 32q-41 0 -82.5 -16t-88.5 -51l-52 75q44 41 105 64t126 23q104 0 161.5 -56.5t57.5 -158.5q0 -95 -51.5 -167z" />
    <glyph glyph-name="uni02A2" unicode="&#x2a2;" horiz-adv-x="560" 
d="M353 218h103v-79h-103v-139h-97v139h-106v79h106v66q-95 33 -146 104t-51 168q0 107 62 167t172 60q135 0 218 -89l-56 -73q-38 35 -76.5 51t-83.5 16q-64 0 -96.5 -32t-32.5 -95q0 -77 47 -129.5t140 -79.5v-134z" />
    <glyph glyph-name="uni02A3" unicode="&#x2a3;" horiz-adv-x="919" 
d="M880 82v-82h-390h-88v38v34q-53 -85 -153 -85q-94 0 -146.5 75t-52.5 209q0 133 54.5 207t152.5 74q42 0 77.5 -16t59.5 -45v279h97v-231h8h376v-82l-275 -375h280zM339.5 92.5q28.5 13.5 54.5 43.5v272q-23 27 -55 41.5t-67 14.5q-61 0 -91.5 -48t-30.5 -143
q0 -194 128 -194q33 0 61.5 13.5zM491 84l275 373h-224h-51v-373z" />
    <glyph glyph-name="uni02A4" unicode="&#x2a4;" horiz-adv-x="956" 
d="M856 160q61 -50 61 -150q0 -75 -33.5 -127t-91.5 -77.5t-130 -25.5q-115 0 -189 41l34 76q72 -33 148 -33q77 0 119.5 37.5t42.5 108.5q0 73 -51.5 105t-136.5 32h-46v75l185 234h-275v1h-2v-457h-89v38v34q-53 -85 -153 -85q-94 0 -146.5 75t-52.5 209q0 133 54.5 207
t152.5 74q42 0 77.5 -16t59.5 -45v279h97v-231h2h386v-84l-189 -235q105 -10 166 -60zM339.5 92.5q28.5 13.5 54.5 43.5v272q-23 27 -55 41.5t-67 14.5q-61 0 -91.5 -48t-30.5 -143q0 -194 128 -194q33 0 61.5 13.5z" />
    <glyph glyph-name="uni02A5" unicode="&#x2a5;" horiz-adv-x="1004" 
d="M973.5 231q29.5 -30 29.5 -84q0 -69 -48.5 -108t-135.5 -39h-85l-57 -103l-64 33l39 70h-162h-88v38v34q-53 -85 -153 -85q-94 0 -146.5 75t-52.5 209q0 133 54.5 207t152.5 74q42 0 77.5 -16t59.5 -45v279h97v-231h8h376v-82l-276 -376h98l36 66q33 59 71.5 86.5
t87.5 27.5q52 0 81.5 -30zM339.5 92.5q28.5 13.5 54.5 43.5v272q-23 27 -55 41.5t-67 14.5q-61 0 -91.5 -48t-30.5 -143q0 -194 128 -194q33 0 61.5 13.5zM491 84l275 373h-224h-51v-373zM917 142q0 40 -39 40q-22 0 -41.5 -16.5t-39.5 -51.5l-18 -33h45q93 0 93 61z" />
    <glyph glyph-name="uni02A6" unicode="&#x2a6;" horiz-adv-x="767" 
d="M690 256.5q35 -36.5 35 -95.5q0 -86 -78 -130t-232 -44q-160 0 -234.5 50t-74.5 158v261h-89v83h90v155h96v-156h246q41 13 86 13q46 0 92 -11t82 -31l-37 -80q-72 36 -139 36q-48 0 -72.5 -17.5t-24.5 -50.5q0 -27 18 -44t56 -26l71 -17q74 -17 109 -53.5zM583 91.5
q47 19.5 47 61.5q0 25 -17.5 41t-56.5 26l-71 17q-74 17 -108.5 53.5t-34.5 97.5q0 39 13 68h-152v-247q0 -50 23.5 -80t74 -43.5t134.5 -13.5q101 0 148 19.5z" />
    <glyph glyph-name="uni02A7" unicode="&#x2a7;" horiz-adv-x="621" 
d="M660 775v-85q-36 4 -55 4q-89 0 -89 -98v-27v-569v-38q0 -87 -49 -135.5t-137 -48.5q-33 0 -55 5v85q36 -4 55 -4q89 0 89 98v77v417h-114h-102v-271q0 -55 22.5 -80.5t69.5 -25.5q28 0 56 9l16 -83q-40 -12 -87 -12q-174 0 -174 176v287h-89v83h90v155h96v-155h157h59
v43v14q0 87 49 135.5t137 48.5q32 0 55 -5z" />
    <glyph glyph-name="uni02A8" unicode="&#x2a8;" horiz-adv-x="757" 
d="M704.5 249q32.5 -35 32.5 -98q0 -77 -49 -120t-138 -43q-79 0 -139 41q-56 -36 -135 -36q-83 0 -126.5 44.5t-43.5 131.5v287h-89v83h90v155h96v-156h260q40 14 84 14q41 0 82 -12.5t74 -33.5l-36 -77q-67 34 -122 34q-66 0 -103.5 -50t-37.5 -139q0 -78 25 -126l10 13
q43 62 82 92.5t93 30.5q58 0 90.5 -35zM226 103.5q23 -25.5 72 -25.5q32 0 56 9q-50 72 -50 180q0 114 53 190h-154v-272q0 -56 23 -81.5zM625 95q24 19 24 55q0 54 -47 54q-32 0 -55.5 -21.5t-49.5 -59.5l-20 -28q32 -19 79 -19q45 0 69 19z" />
    <glyph glyph-name="uni02A9" unicode="&#x2a9;" horiz-adv-x="889" 
d="M765.5 506.5q43.5 -45.5 43.5 -127.5v-379v-54q0 -79 -41 -122.5t-115 -43.5q-70 0 -119 36l32 74q48 -25 83 -25q31 0 47 21.5t16 63.5v206v212q0 92 -100 92q-35 0 -64.5 -11.5t-59.5 -35.5v-413h-97v456h-129h-61v-456h-97v456h-89v83h89v57q0 87 51.5 135.5
t144.5 48.5q33 0 55 -5v-85q-36 4 -55 4q-49 0 -74 -25t-25 -73v-57h135h55h89v-61q66 74 164 74q78 0 121.5 -45.5z" />
    <glyph glyph-name="uni02AA" unicode="&#x2aa;" horiz-adv-x="684" 
d="M150 37q-67 50 -67 158v575h97v-561q0 -74 46 -105.5t154 -31.5q86 0 126.5 19.5t40.5 61.5q0 25 -17.5 41t-56.5 26l-71 17q-74 17 -108.5 53.5t-34.5 97.5q0 77 51 120t142 43q47 0 92.5 -11t82.5 -31l-38 -80q-72 36 -139 36q-47 0 -71.5 -17.5t-24.5 -50.5
q0 -27 18 -44t56 -26l71 -17q74 -17 108.5 -53.5t34.5 -95.5q0 -86 -70.5 -130t-209.5 -44q-145 0 -212 50z" />
    <glyph glyph-name="uni02AB" unicode="&#x2ab;" horiz-adv-x="610" 
d="M571 82v-82h-390h-96v770h97v-243l8 7v5h376v-82l-274 -375h279zM182 84l275 373h-267v11l-8 -7v-377z" />
    <glyph glyph-name="uni02AC" unicode="&#x2ac;" horiz-adv-x="557" 
d="M129 411l-100 313h84l63 -238l62 238h82l64 -238l61 238h81l-99 -313h-88l-61 226l-59 -226h-90zM445 313h81l-99 -313h-88l-61 226l-59 -226h-90l-100 313h84l63 -238l62 238h82l64 -238z" />
    <glyph glyph-name="uni02AD" unicode="&#x2ad;" horiz-adv-x="538" 
d="M70 724v-312h79v224h239v-224h79v312h-397zM70 312v-312h79v224h239v-224h79v312h-397z" />
    <glyph glyph-name="uni02AE" unicode="&#x2ae;" horiz-adv-x="609" 
d="M524 539v-746h-97v265q-57 -71 -153 -71q-76 0 -118.5 45.5t-42.5 127.5v191v43q0 37 -14 54t-44 17q-22 0 -50 -7l-14 78q31 12 68 12q74 0 112.5 -38t38.5 -113v-226q0 -92 96 -92q36 0 65.5 13.5t55.5 41.5v405h97z" />
    <glyph glyph-name="uni02AF" unicode="&#x2af;" horiz-adv-x="609" 
d="M635 -207q-29 -11 -67 -11q-141 0 -141 140v136q-57 -71 -153 -71q-76 0 -118.5 45t-42.5 127v1v229q0 37 -14 54t-44 17q-28 0 -50 -7l-14 79q29 11 68 11q74 0 112.5 -38t38.5 -112v-222q0 -92 96 -92q36 0 65.5 13.5t55.5 41.5v405h97v-546v-67q0 -32 12 -46t38 -14
q24 0 47 5z" />
    <glyph glyph-name="uni02B0" unicode="&#x2b0;" horiz-adv-x="526" 
d="M402 699.5q34 -34.5 34 -96.5v-280h-86v268q0 62 -75 62q-51 0 -93 -32v-298h-87v569h87v-209q53 51 124 51q62 0 96 -34.5z" />
    <glyph glyph-name="uni02B1" unicode="&#x2b1;" horiz-adv-x="526" 
d="M402 699.5q34 -34.5 34 -96.5v-280h-86v268q0 62 -75 62q-51 0 -93 -32v-298h-87v435v41q0 104 115 104q31 0 58 -10l-12 -69q-24 4 -38 4q-19 0 -27.5 -8.5t-8.5 -26.5v-110q53 51 124 51q62 0 96 -34.5z" />
    <glyph glyph-name="uni02B2" unicode="&#x2b2;" horiz-adv-x="273" 
d="M96.5 796.5q-14.5 13.5 -14.5 37.5q0 25 14.5 38.5t40.5 13.5q25 0 39.5 -14t14.5 -37q0 -25 -14.5 -38.5t-39.5 -13.5q-26 0 -40.5 13.5zM-18 231q45 14 68.5 29.5t33 37.5t9.5 59v367h87v-369q0 -56 -15.5 -91.5t-51.5 -59.5t-102 -44z" />
    <glyph glyph-name="uni02B3" unicode="&#x2b3;" horiz-adv-x="366" 
d="M338 723l-18 -82q-27 8 -52 8q-55 0 -86 -42v-284h-87v401h79v-62q40 70 114 70q26 0 50 -9z" />
    <glyph glyph-name="uni02B4" unicode="&#x2b4;" horiz-adv-x="366" 
d="M271 724v-401h-79v63q-40 -71 -113 -71q-29 0 -50 10l17 81q24 -7 52 -7q29 0 49.5 10t36.5 32v283h87z" />
    <glyph glyph-name="uni02B5" unicode="&#x2b5;" horiz-adv-x="339" 
d="M365 172q-32 -10 -58 -10q-61 0 -92 28.5t-31 83.5v99q-39 -58 -105 -58q-29 0 -50 10l17 81q24 -7 52 -7q29 0 49.5 10t36.5 32v283h87v-401v-43q0 -22 9.5 -32t30.5 -10q25 0 41 5z" />
    <glyph glyph-name="uni02B6" unicode="&#x2b6;" horiz-adv-x="495" 
d="M404 535q23 -32 23 -78q0 -64 -41 -99t-116 -35h-99h-71v401h87v-133h64l102 133h103l-118 -143q43 -14 66 -46zM338 458q0 60 -68 60h-83v-119h81q70 0 70 59z" />
    <glyph glyph-name="uni02B7" unicode="&#x2b7;" horiz-adv-x="659" 
d="M622 724l-121 -401h-93l-79 302l-77 -302h-95l-120 401h88l80 -318l81 318h88l82 -318l79 318h87z" />
    <glyph glyph-name="uni02B8" unicode="&#x2b8;" horiz-adv-x="447" 
d="M412 724l-138 -385q-23 -66 -73 -109t-134 -69l-30 73q55 18 88.5 39t53.5 50l-144 401h89l100 -312l100 312h88z" />
    <glyph glyph-name="uni02B9" unicode="&#x2b9;" horiz-adv-x="208" 
d="M47 511l37 237h97v-10l-66 -237h-68v10z" />
    <glyph glyph-name="uni02BA" unicode="&#x2ba;" horiz-adv-x="361" 
d="M47 511l37 237h97v-10l-66 -237h-68v10zM199 511l37 237h97v-10l-66 -237h-68v10z" />
    <glyph glyph-name="uni02BB" unicode="&#x2bb;" horiz-adv-x="200" 
d="M191 740q-32 -34 -45.5 -68t-13.5 -80q0 -25 2 -47h-90q-2 22 -2 46q0 54 27 99t86 89z" />
    <glyph glyph-name="uni02BC" unicode="&#x2bc;" horiz-adv-x="200" 
d="M9 574q32 34 45.5 68t13.5 80q0 26 -2 48h90q2 -22 2 -47q0 -53 -27.5 -98t-86.5 -89z" />
    <glyph glyph-name="uni02BD" unicode="&#x2bd;" horiz-adv-x="200" 
d="M69 625q-27 45 -27 98q0 25 2 47h90q-2 -22 -2 -48q0 -46 13.5 -80t45.5 -68l-36 -38q-59 44 -86 89z" />
    <glyph glyph-name="uni02BE" unicode="&#x2be;" horiz-adv-x="158" 
d="M22 655q58 0 58 59t-58 59v52q58 0 90.5 -29t32.5 -82t-32.5 -82.5t-90.5 -29.5v53z" />
    <glyph glyph-name="uni02BF" unicode="&#x2bf;" horiz-adv-x="158" 
d="M44.5 631.5q-32.5 29.5 -32.5 82.5q0 52 32.5 81.5t90.5 29.5v-52q-57 0 -57 -59t57 -59v-53q-58 0 -90.5 29.5z" />
    <glyph glyph-name="uni02C0" unicode="&#x2c0;" horiz-adv-x="493" 
d="M383.5 618.5q-40.5 -53.5 -114.5 -82.5v-213h-87v263q148 44 148 150q0 82 -90 82q-64 0 -135 -48l-46 63q37 33 86 50.5t103 17.5q84 0 130 -42t46 -118q0 -69 -40.5 -122.5z" />
    <glyph glyph-name="uni02C1" unicode="&#x2c1;" horiz-adv-x="494" 
d="M163 736q0 -102 148 -150v-263h-87v208q-74 27 -114.5 79.5t-40.5 122.5q0 80 49.5 124t139.5 44q111 0 177 -70l-48 -61q-58 48 -126 48q-98 0 -98 -82z" />
    <glyph glyph-name="uni02C2" unicode="&#x2c2;" horiz-adv-x="388" 
d="M332 431l-63 -59l-212 221l212 221l63 -59l-163 -162z" />
    <glyph glyph-name="uni02C3" unicode="&#x2c3;" horiz-adv-x="388" 
d="M57 755l63 59l212 -221l-212 -221l-63 59l162 162z" />
    <glyph glyph-name="uni02C4" unicode="&#x2c4;" horiz-adv-x="479" 
d="M444 436l-69 -41l-136 246l-134 -246l-70 41l204 357z" />
    <glyph glyph-name="uni02C5" unicode="&#x2c5;" horiz-adv-x="479" 
d="M35 749l69 41l135 -246l135 246l70 -41l-205 -357z" />
    <glyph glyph-name="circumflex" unicode="&#x2c6;" horiz-adv-x="500" 
d="M399 625v-10h-70l-80 103l-81 -103h-67v10l102 159h94z" />
    <glyph glyph-name="caron" unicode="&#x2c7;" horiz-adv-x="500" 
d="M399 784v-10l-102 -159h-94l-102 159v10h70l81 -103l80 103h67z" />
    <glyph glyph-name="uni02C8" unicode="&#x2c8;" horiz-adv-x="196" 
d="M61 839h74v-224h-74v224z" />
    <glyph glyph-name="uni02C9" unicode="&#x2c9;" horiz-adv-x="500" 
d="M99 710h302v-71h-302v71z" />
    <glyph glyph-name="uni02CA" unicode="&#x2ca;" horiz-adv-x="500" 
d="M191 625l100 159h106v-10l-132 -159h-74v10z" />
    <glyph glyph-name="uni02CB" unicode="&#x2cb;" horiz-adv-x="500" 
d="M115 774v10h107l91 -159v-10h-74z" />
    <glyph glyph-name="uni02CC" unicode="&#x2cc;" horiz-adv-x="196" 
d="M61 -80h74v-224h-74v224z" />
    <glyph glyph-name="uni02CD" unicode="&#x2cd;" horiz-adv-x="401" 
d="M50 -97h302v-71h-302v71z" />
    <glyph glyph-name="uni02CE" unicode="&#x2ce;" horiz-adv-x="358" 
d="M50 -96v12h117l141 -133v-12h-85z" />
    <glyph glyph-name="uni02CF" unicode="&#x2cf;" horiz-adv-x="367" 
d="M50 -217l150 133h117v-12l-182 -133h-85v12z" />
    <glyph glyph-name="uni02D0" unicode="&#x2d0;" horiz-adv-x="299" 
d="M50 539h199l-89 -175h-20zM140 175h20l89 -175h-199z" />
    <glyph glyph-name="uni02D1" unicode="&#x2d1;" horiz-adv-x="299" 
d="M50 539h199l-89 -175h-20z" />
    <glyph glyph-name="uni02D2" unicode="&#x2d2;" horiz-adv-x="294" 
d="M78 227q58 0 58 59t-58 59v52q58 0 90.5 -29t32.5 -82t-32.5 -82.5t-90.5 -29.5v53z" />
    <glyph glyph-name="uni02D3" unicode="&#x2d3;" horiz-adv-x="294" 
d="M124.5 203.5q-32.5 29.5 -32.5 82.5q0 52 32.5 81.5t90.5 29.5v-52q-57 0 -57 -59t57 -59v-53q-58 0 -90.5 29.5z" />
    <glyph glyph-name="uni02D4" unicode="&#x2d4;" horiz-adv-x="429" 
d="M350 295h-102v-120h-66v120h-102v63h270v-63z" />
    <glyph glyph-name="uni02D5" unicode="&#x2d5;" horiz-adv-x="429" 
d="M350 258v-63h-270v63h102v120h66v-120h102z" />
    <glyph glyph-name="uni02D6" unicode="&#x2d6;" horiz-adv-x="503" 
d="M442 265h-151v-153h-79v153h-151v77h151v153h79v-153h151v-77z" />
    <glyph glyph-name="uni02D7" unicode="&#x2d7;" horiz-adv-x="503" 
d="M61 342h381v-78h-381v78z" />
    <glyph glyph-name="breve" unicode="&#x2d8;" horiz-adv-x="500" 
d="M143 653.5q-39 40.5 -42 114.5h62q12 -79 88 -79q77 0 89 79h59q-3 -74 -42 -114.5t-107 -40.5t-107 40.5z" />
    <glyph glyph-name="dotaccent" unicode="&#x2d9;" horiz-adv-x="500" 
d="M203.5 637.5q-16.5 16.5 -16.5 45.5q0 30 16.5 46.5t46.5 16.5t46.5 -16.5t16.5 -45.5q0 -30 -16.5 -46.5t-46.5 -16.5t-46.5 16.5z" />
    <glyph glyph-name="ring" unicode="&#x2da;" horiz-adv-x="500" 
d="M159.5 631.5q-32.5 29.5 -32.5 82.5q0 52 32.5 81.5t90.5 29.5t90.5 -29.5t32.5 -81.5q0 -53 -32.5 -82.5t-90.5 -29.5t-90.5 29.5zM308 714q0 59 -58 59t-58 -59t58 -59t58 59z" />
    <glyph glyph-name="ogonek" unicode="&#x2db;" horiz-adv-x="500" 
d="M97.5 -197q-29.5 25 -29.5 69q0 43 27.5 79t75.5 58l67 -9q-87 -50 -87 -110q0 -42 48 -42q30 0 62 16l25 -56q-22 -14 -50 -22t-57 -8q-52 0 -81.5 25z" />
    <glyph glyph-name="tilde" unicode="&#x2dc;" horiz-adv-x="500" 
d="M274.5 628q-19.5 10 -44.5 28q-18 13 -29 19t-23 6q-34 0 -41 -61h-59q2 63 28.5 99t73.5 36q26 0 45.5 -10t44.5 -28q18 -13 29 -19t23 -6q34 0 41 61h59q-2 -63 -28.5 -99t-73.5 -36q-26 0 -45.5 10z" />
    <glyph glyph-name="hungarumlaut" unicode="&#x2dd;" horiz-adv-x="500" 
d="M133 625l59 159h94v-10l-90 -159h-63v10zM279 625l60 159h94v-10l-91 -159h-63v10z" />
    <glyph glyph-name="uni02DE" unicode="&#x2de;" horiz-adv-x="190" 
d="M190 339l-15 -80q-70 0 -111.5 35t-49.5 100l-84 -15l-6 77l183 30l-4 -40l-2 -28q0 -79 74 -79h15z" />
    <glyph glyph-name="uni02DF" unicode="&#x2df;" horiz-adv-x="410" 
d="M254 744l76 -68l-46 -47l-79 72l-79 -72l-46 47l76 68l-76 69l46 47l79 -72l79 72l46 -47z" />
    <glyph glyph-name="uni02E0" unicode="&#x2e0;" horiz-adv-x="451" 
d="M301 331q23 -50 23 -84q0 -41 -25.5 -63.5t-72.5 -22.5t-72 22.5t-25 63.5q0 35 22 84l36 81l-152 312h89l102 -225l100 225h90l-152 -311zM252 254q0 25 -19 64l-8 16l-8 -16q-19 -39 -19 -63q0 -34 28 -34q26 0 26 33z" />
    <glyph glyph-name="uni02E1" unicode="&#x2e1;" horiz-adv-x="300" 
d="M93 419v473h87v-456q0 -22 9.5 -31t30.5 -9q7 0 29 2l7 -73q-33 -7 -58 -7q-105 0 -105 101z" />
    <glyph glyph-name="uni02E2" unicode="&#x2e2;" horiz-adv-x="413" 
d="M114.5 324.5q-40.5 10.5 -71.5 29.5l30 70q59 -33 124 -33q80 0 80 45q0 18 -13.5 29t-44.5 18l-56 12q-59 14 -86 40.5t-27 72.5q0 59 41.5 92t115.5 33q38 0 75 -8.5t67 -24.5l-32 -70q-57 27 -112 27q-71 0 -71 -40q0 -17 13.5 -28t43.5 -18l56 -12q60 -14 87 -41
t27 -74q0 -62 -43 -96t-121 -34q-42 0 -82.5 10.5z" />
    <glyph glyph-name="uni02E3" unicode="&#x2e3;" horiz-adv-x="443" 
d="M311 323l-91 142l-89 -142h-94l138 204l-132 197h96l84 -133l88 133h94l-136 -196l137 -205h-95z" />
    <glyph glyph-name="uni02E4" unicode="&#x2e4;" horiz-adv-x="494" 
d="M163 736q0 -102 148 -150v-263h-87v208q-74 27 -114.5 79.5t-40.5 122.5q0 80 49.5 124t139.5 44q111 0 177 -70l-48 -61q-58 48 -126 48q-98 0 -98 -82z" />
    <glyph glyph-name="uni02E5" unicode="&#x2e5;" horiz-adv-x="423" 
d="M338 0h-83v692h-227v78h310v-770z" />
    <glyph glyph-name="uni02E6" unicode="&#x2e6;" horiz-adv-x="423" 
d="M338 770v-251v-519h-83v519h-227v77h227v174h83z" />
    <glyph glyph-name="uni02E7" unicode="&#x2e7;" horiz-adv-x="423" 
d="M338 770v-424v-346h-83v346h-227v78h227v346h83z" />
    <glyph glyph-name="uni02E8" unicode="&#x2e8;" horiz-adv-x="423" 
d="M338 770v-596v-174h-83v174h-227v77h227v519h83z" />
    <glyph glyph-name="uni02E9" unicode="&#x2e9;" horiz-adv-x="423" 
d="M338 770v-770h-310v78h227v692h83z" />
    <glyph glyph-name="uni02EA" unicode="&#x2ea;" horiz-adv-x="433" 
d="M405 78v-78h-320v539h82v-461h238z" />
    <glyph glyph-name="uni02EB" unicode="&#x2eb;" horiz-adv-x="433" 
d="M405 230h-238v-230h-82v308v231h82v-231h238v-78z" />
    <glyph glyph-name="uni02EC" unicode="&#x2ec;" horiz-adv-x="399" 
d="M348 -60v-10l-102 -159h-94l-102 159v10h70l80 -103l81 103h67z" />
    <glyph glyph-name="uni02ED" unicode="&#x2ed;" horiz-adv-x="513" 
d="M84 725h345v-78h-345v78zM84 551h345v-78h-345v78z" />
    <glyph glyph-name="uni02EE" unicode="&#x2ee;" horiz-adv-x="357" 
d="M9 574q32 34 45.5 68t13.5 80q0 26 -2 48h90q2 -22 2 -47q0 -53 -27.5 -98t-86.5 -89zM166 574q32 34 45.5 68t13.5 80q0 26 -2 48h90q2 -22 2 -47q0 -53 -27.5 -98t-86.5 -89z" />
    <glyph glyph-name="uni02EF" unicode="&#x2ef;" horiz-adv-x="479" 
d="M35 73l69 41l135 -246l135 246l70 -41l-205 -357z" />
    <glyph glyph-name="uni02F0" unicode="&#x2f0;" horiz-adv-x="479" 
d="M444 -240l-69 -41l-136 246l-134 -246l-70 41l204 357z" />
    <glyph glyph-name="uni02F1" unicode="&#x2f1;" horiz-adv-x="388" 
d="M332 -245l-63 -59l-212 221l212 221l63 -59l-163 -162z" />
    <glyph glyph-name="uni02F2" unicode="&#x2f2;" horiz-adv-x="388" 
d="M57 79l63 59l212 -221l-212 -221l-63 59l162 162z" />
    <glyph glyph-name="uni02F3" unicode="&#x2f3;" horiz-adv-x="346" 
d="M82.5 -257.5q-32.5 29.5 -32.5 82.5q0 52 32.5 81.5t90.5 29.5t90.5 -29.5t32.5 -81.5q0 -53 -32.5 -82.5t-90.5 -29.5t-90.5 29.5zM231 -175q0 59 -58 59t-58 -59q0 -60 58 -60t58 60z" />
    <glyph glyph-name="uni02F4" unicode="&#x2f4;" horiz-adv-x="372" 
d="M82 356v10h107l91 -159v-10h-74z" />
    <glyph glyph-name="uni02F5" unicode="&#x2f5;" horiz-adv-x="463" 
d="M163 197l-83 159v10h94l52 -159v-10h-63zM309 197l-82 159v10h94l51 -159v-10h-63z" />
    <glyph glyph-name="uni02F6" unicode="&#x2f6;" horiz-adv-x="471" 
d="M90 207l59 159h94v-10l-90 -159h-63v10zM236 207l60 159h94v-10l-91 -159h-63v10z" />
    <glyph glyph-name="uni02F7" unicode="&#x2f7;" horiz-adv-x="443" 
d="M246.5 -219q-19.5 10 -44.5 28q-18 13 -29 19t-23 6q-34 0 -41 -61h-59q2 63 28.5 99t73.5 36q26 0 45.5 -10t44.5 -28q18 -13 29 -19t23 -6q34 0 41 61h59q-2 -63 -28.5 -99t-73.5 -36q-26 0 -45.5 10z" />
    <glyph glyph-name="uni02F8" unicode="&#x2f8;" horiz-adv-x="294" 
d="M106 602.5q-15 14.5 -15 39.5t15 39t41 14q27 0 42 -14.5t15 -38.5q0 -26 -15 -40t-42 -14q-26 0 -41 14.5zM106 353q-15 14 -15 39t15 39.5t41 14.5q27 0 42 -14t15 -39q0 -26 -15 -40t-42 -14q-26 0 -41 14z" />
    <glyph glyph-name="uni02F9" unicode="&#x2f9;" horiz-adv-x="375" 
d="M285 654h-116v-171h-74v241h190v-70z" />
    <glyph glyph-name="uni02FA" unicode="&#x2fa;" horiz-adv-x="375" 
d="M280 483h-74v171h-116v70h190v-241z" />
    <glyph glyph-name="uni02FB" unicode="&#x2fb;" horiz-adv-x="375" 
d="M285 70v-70h-190v241h74v-171h116z" />
    <glyph glyph-name="uni02FC" unicode="&#x2fc;" horiz-adv-x="375" 
d="M280 241v-241h-190v70h116v171h74z" />
    <glyph glyph-name="uni02FD" unicode="&#x2fd;" horiz-adv-x="499" 
d="M448 -20v-194h-316h-82v194h82v-108h235v108h81z" />
    <glyph glyph-name="uni02FE" unicode="&#x2fe;" horiz-adv-x="479" 
d="M448 -128v-86h-398v194h82v-108h316z" />
    <glyph glyph-name="uni02FF" unicode="&#x2ff;" horiz-adv-x="590" 
d="M531 -213h-361l76 -59v-11h-81l-110 96v10l110 96h81v-11l-76 -59h361v-62z" />
    <glyph glyph-name="gravecomb" unicode="&#x300;" 
d="M-415 774v10h106l92 -159v-10h-74z" />
    <glyph glyph-name="acutecomb" unicode="&#x301;" 
d="M-339 625l99 159h107v-10l-132 -159h-74v10z" />
    <glyph glyph-name="uni0302" unicode="&#x302;" 
d="M-131 625v-10h-70l-81 103l-80 -103h-67v10l102 159h94z" />
    <glyph glyph-name="tildecomb" unicode="&#x303;" 
d="M-255.5 628q-19.5 10 -44.5 28q-18 13 -29 19t-23 6q-34 0 -41 -61h-59q2 63 28.5 99t73.5 36q26 0 45.5 -10t44.5 -28q18 -13 29 -19t23 -6q34 0 41 61h59q-2 -63 -28.5 -99t-73.5 -36q-26 0 -45.5 10z" />
    <glyph glyph-name="uni0304" unicode="&#x304;" 
d="M-431 710h302v-71h-302v71z" />
    <glyph glyph-name="uni0305" unicode="&#x305;" 
d="M-489 903h418v-86h-418v86z" />
    <glyph glyph-name="uni0306" unicode="&#x306;" 
d="M-387 653.5q-39 40.5 -42 114.5h62q12 -79 88 -79q77 0 89 79h59q-3 -74 -42 -114.5t-107 -40.5t-107 40.5z" />
    <glyph glyph-name="uni0307" unicode="&#x307;" 
d="M-326.5 637.5q-16.5 16.5 -16.5 45.5q0 30 16.5 46.5t46.5 16.5t46.5 -16.5t16.5 -45.5q0 -30 -16.5 -46.5t-46.5 -16.5t-46.5 16.5z" />
    <glyph glyph-name="uni0308" unicode="&#x308;" 
d="M-417.5 639q-15.5 16 -15.5 43q0 28 15.5 44t43.5 16q27 0 42.5 -16t15.5 -43q0 -29 -15 -44.5t-43 -15.5t-43.5 16zM-228.5 639q-15.5 16 -15.5 43q0 28 15.5 44t43.5 16q27 0 42.5 -16t15.5 -43q0 -29 -15 -44.5t-43 -15.5t-43.5 16z" />
    <glyph glyph-name="hookabovecomb" unicode="&#x309;" 
d="M-318 638q0 23 9 35t25 23q11 8 16.5 14t5.5 15q0 20 -27 20q-30 0 -60 -19l-24 51q21 13 47.5 20.5t53.5 7.5q43 0 67.5 -19t24.5 -54q0 -23 -10 -35.5t-28 -23.5q-14 -9 -21 -17t-7 -21q0 -8 2 -20h-72q-2 12 -2 23z" />
    <glyph glyph-name="uni030A" unicode="&#x30a;" 
d="M-370.5 631.5q-32.5 29.5 -32.5 82.5q0 52 32.5 81.5t90.5 29.5t90.5 -29.5t32.5 -81.5q0 -53 -32.5 -82.5t-90.5 -29.5t-90.5 29.5zM-222 714q0 59 -58 59t-58 -59t58 -59t58 59z" />
    </font>
</defs>
</svg>
